<?xml version="1.0" standalone="no"?>
<!DOCTYPE svg PUBLIC "-//W3C//DTD SVG 1.1//EN" "http://www.w3.org/Graphics/SVG/1.1/DTD/svg11.dtd" >
<svg>
<metadata>
Created by FontForge 20090914 at Thu Jul 31 10:06:05 2014
 By www-data
HTF Gotham  Copr. 2000 The Hoefler Type Foundry, Inc. Info: www.typography.com
</metadata>
<defs>
<font id="GothamLight" horiz-adv-x="500" >
  <font-face 
    font-family="Gotham Light"
    font-weight="300"
    font-stretch="normal"
    units-per-em="1000"
    panose-1="2 0 6 3 3 0 0 2 0 4"
    ascent="800"
    descent="-200"
    x-height="510"
    cap-height="700"
    bbox="-67 -164.261 1145 898"
    underline-thickness="20"
    underline-position="-113"
    unicode-range="U+0020-U+FB02"
  />
<missing-glyph 
 />
    <glyph glyph-name="fi" unicode="fi" horiz-adv-x="611" 
d="M462 510h49v-510h-49v510zM123 465h-74.002v45h74v50c0 58.667 15 103 45 133c26.667 26.667 62.334 40 107.001 40c15.333 0 29 -1 41 -3s23.667 -5 35 -9v-46c-14.667 4.66699 -27.667 8 -39 10s-23.666 3 -36.999 3c-68.667 0 -103 -43 -103 -129v-49h178v-45h-178
v-465h-49v465zM455.998 710h61v-67h-61v67z" />
    <glyph glyph-name="fl" unicode="fl" horiz-adv-x="611" 
d="M462 730h49v-730h-49v730zM123 465h-74.002v45h74v50c0 58.667 15 103 45 133c26.667 26.667 62.334 40 107.001 40c15.333 0 29 -1 41 -3s23.667 -5 35 -9v-46c-14.667 4.66699 -27.667 8 -39 10s-23.666 3 -36.999 3c-68.667 0 -103 -43 -103 -129v-49h178v-45h-178
v-465h-49v465z" />
    <glyph glyph-name=".notdef" 
 />
    <glyph glyph-name="space" unicode=" " horiz-adv-x="300" 
 />
    <glyph glyph-name="exclam" unicode="!" horiz-adv-x="252" 
d="M93 85h66v-85h-66v85zM97 630v70h58v-70l-15 -447h-28z" />
    <glyph glyph-name="quotedbl" unicode="&#x22;" horiz-adv-x="410" 
d="M103 700h65v-5l-71 -249h-29zM283 700h65v-5l-71 -249h-29z" />
    <glyph glyph-name="numbersign" unicode="#" horiz-adv-x="700" 
d="M433 234l41 236h-207l-41 -236h207zM170 187h-121v47h129l41 236h-130v47h138l31 183h48l-31 -183h207l31 183h48l-31 -183h120v-47h-128l-41 -236h129v-47h-137l-32 -187h-48l32 187h-207l-32 -187h-48z" />
    <glyph glyph-name="dollar" unicode="$" horiz-adv-x="632" 
d="M343 45c24.667 0.666992 47.167 4.5 67.5 11.5s37.833 16.5 52.5 28.5s25.834 26.167 33.501 42.5s11.5 33.833 11.5 52.5v2c0 16.667 -2.33301 32 -7 46s-13.334 26.667 -26.001 38s-29.667 21.5 -51 30.5s-48.333 17.167 -81 24.5v-276zM299 655
c-48.667 -1.33301 -87.668 -14.499 -117.001 -39.499s-44 -55.5 -44 -91.5v-2c0 -16 2.33301 -30.833 7 -44.5s13 -26.334 25 -38.001s28.333 -22.167 49 -31.5s47.334 -18 80.001 -26v273zM296.999 1.00098c-46 4 -88.0049 14.8301 -126.005 32.4971s-75 42.5 -111 74.5
l33 39c31.333 -29.333 63.333 -52.5 96 -69.5s69.334 -27.167 110.001 -30.5v284c-75.333 16.667 -129.5 39.5 -162.5 68.5s-49.5 68.5 -49.5 118.5v2c0 24.667 5.16699 47.834 15.5 69.501s24.833 40.5 43.5 56.5s40.834 28.833 66.501 38.5s53.834 14.834 84.501 15.501
v58h48v-60c38.667 -3.33301 73 -11.833 103 -25.5s60 -32.5 90 -56.5l-33 -39c-26 23.333 -52.167 41 -78.5 53s-54.166 19.667 -83.499 23v-281c76 -16 131 -38.833 165 -68.5s51 -68.834 51 -117.501v-2c0 -26 -5.16699 -50 -15.5 -72s-25 -41.167 -44 -57.5
s-41.667 -29.166 -68 -38.499s-55.166 -14.666 -86.499 -15.999v-98h-48v99z" />
    <glyph glyph-name="percent" unicode="%" horiz-adv-x="824" 
d="M616 35c14.667 0 28.167 3.49902 40.5 10.499s23 16.5 32 28.5s16 26.167 21 42.5s7.5 33.833 7.5 52.5v2c0 19.333 -2.66699 37.333 -8 54s-12.833 31 -22.5 43s-20.667 21.5 -33 28.5s-25.5 10.5 -39.5 10.5c-14.667 0 -28.167 -3.5 -40.5 -10.5s-23 -16.667 -32 -29
s-16 -26.666 -21 -42.999s-7.5 -33.5 -7.5 -51.5v-2c0 -20 2.66699 -38.333 8 -55s12.833 -31 22.5 -43s20.667 -21.333 33 -28s25.5 -10 39.5 -10zM210 392.999c14.667 0 28.167 3.49902 40.5 10.499s23 16.5 32 28.5s16 26.167 21 42.5s7.5 33.833 7.5 52.5v2
c0 19.333 -2.66699 37.333 -8 54s-12.833 31 -22.5 43s-20.667 21.5 -33 28.5s-25.5 10.5 -39.5 10.5c-14.667 0 -28.167 -3.5 -40.5 -10.5s-23 -16.667 -32 -29s-16 -26.666 -21 -42.999s-7.5 -33.5 -7.5 -51.5v-2c0 -20 2.66699 -38.333 8 -55s12.833 -31 22.5 -43
s20.667 -21.333 33 -28s25.5 -10 39.5 -10zM614 -8.00195c-23.333 0 -44.333 4.83789 -63 14.5049s-34.667 22.667 -48 39s-23.666 35.166 -30.999 56.499s-11 43.666 -11 66.999v2c0 23.333 3.66699 45.833 11 67.5s17.833 40.667 31.5 57s30 29.5 49 39.5
s40.167 15 63.5 15c22.667 0 43.5 -4.83301 62.5 -14.5s35.167 -22.834 48.5 -39.501s23.666 -35.667 30.999 -57s11 -43.333 11 -66v-2c0 -23.333 -3.66699 -45.833 -11 -67.5s-17.833 -40.834 -31.5 -57.501s-30 -29.834 -49 -39.501s-40.167 -14.5 -63.5 -14.5z
M642 700.003h54l-514 -700h-54zM208 350.003c-23.333 0 -44.333 4.83789 -63 14.5049s-34.667 22.667 -48 39s-23.666 35.166 -30.999 56.499s-11 43.666 -11 66.999v2c0 23.333 3.66699 45.833 11 67.5s17.833 40.667 31.5 57s30 29.5 49 39.5s40.167 15 63.5 15
c22.667 0 43.5 -4.83301 62.5 -14.5s35.167 -22.834 48.5 -39.501s23.666 -35.667 30.999 -57s11 -43.333 11 -66v-2c0 -23.333 -3.66699 -45.833 -11 -67.5s-17.833 -40.834 -31.5 -57.501s-30 -29.834 -49 -39.501s-40.167 -14.5 -63.5 -14.5z" />
    <glyph glyph-name="ampersand" unicode="&#x26;" horiz-adv-x="696" 
d="M265 35c39.333 0 75.668 9.83203 109.001 29.499s64.666 46.5 93.999 80.5l-207 214c-56 -19.333 -96.667 -44.166 -122 -74.499s-38 -62.5 -38 -96.5v-2c0 -21.333 4 -41.166 12 -59.499s19.333 -34.333 34 -48s32 -24.334 52 -32.001s42 -11.5 66 -11.5z
M285.002 408.999c100.667 32 151.002 81 151.002 147v2c0 31.333 -10.5 57.5 -31.5 78.5s-47.5 31.5 -79.5 31.5c-36 0 -65.167 -10.833 -87.5 -32.5s-33.5 -48.5 -33.5 -80.5v-2c0 -11.333 1.33301 -22 4 -32s7.16699 -20.5 13.5 -31.5s14.666 -23 24.999 -36
s23.166 -27.833 38.499 -44.5zM501.004 110.999c-33.333 -38.667 -69.332 -68.499 -107.999 -89.499s-81.667 -31.5 -129 -31.5c-30.667 0 -59.167 4.83301 -85.5 14.5s-49 23 -68 40s-34 37.333 -45 61s-16.5 49.834 -16.5 78.501v2c0 47.333 15.833 88 47.5 122
s76.167 61.667 133.5 83c-26.667 29.333 -46.334 56 -59.001 80s-19 50.667 -19 80v2c0 22.667 4.33301 43.667 13 63s20.667 36.166 36 50.499s33.833 25.5 55.5 33.5s45.167 12 70.5 12c22.667 0 43.834 -4 63.501 -12s36.667 -18.833 51 -32.5
s25.666 -29.834 33.999 -48.501s12.5 -38.334 12.5 -59.001v-2c0 -44 -15.167 -80.5 -45.5 -109.5s-72.5 -52.833 -126.5 -71.5l184 -189c17.333 24 33.5 50.333 48.5 79s29.167 59 42.5 91l47 -19c-16 -36 -32.5 -69.667 -49.5 -101s-35.167 -59.666 -54.5 -84.999
l129 -133l-41 -34z" />
    <glyph glyph-name="quotesingle" unicode="'" horiz-adv-x="230" 
d="M103 700h65v-5l-71 -249h-29z" />
    <glyph glyph-name="parenleft" unicode="(" horiz-adv-x="430" 
d="M348 -141c-88.667 50 -157 111 -205 183s-72 153.667 -72 245s24 173 72 245s116.333 133 205 183l21 -33c-79.333 -48.667 -140.166 -105.667 -182.499 -171s-63.5 -140 -63.5 -224s21.167 -158.667 63.5 -224s103.166 -122.333 182.499 -171z" />
    <glyph glyph-name="parenright" unicode=")" horiz-adv-x="430" 
d="M61 -108c79.333 48.667 140.166 105.667 182.499 171s63.5 140 63.5 224s-21.167 158.667 -63.5 224s-103.166 122.333 -182.499 171l21 33c88.667 -50 157 -111 205 -183s72 -153.667 72 -245s-24 -173 -72 -245s-116.333 -133 -205 -183z" />
    <glyph glyph-name="asterisk" unicode="*" horiz-adv-x="430" 
d="M203 533l-106 -72l-22 37l118 56l-118 56l22 37l106 -72l-9 127h42l-9 -127l106 72l22 -37l-118 -56l118 -56l-22 -37l-106 72l9 -127h-42z" />
    <glyph glyph-name="plus" unicode="+" horiz-adv-x="640" 
d="M295 328h-217v48h217v215h50v-215h217v-48h-217v-215h-50v215z" />
    <glyph glyph-name="comma" unicode="," horiz-adv-x="230" 
d="M53 -82c21.333 11.333 36.332 23 44.999 35s12.334 27.667 11.001 47h-27v85h66v-74c0 -31.333 -6.33301 -56 -19 -74s-34 -32.667 -64 -44z" />
    <glyph glyph-name="hyphen" unicode="-" horiz-adv-x="408" 
d="M70 325h268v-56h-268v56z" />
    <glyph glyph-name="hyphen" unicode="&#xad;" horiz-adv-x="408" 
d="M70 325h268v-56h-268v56z" />
    <glyph glyph-name="period" unicode="." horiz-adv-x="230" 
d="M82 85h66v-85h-66v85z" />
    <glyph glyph-name="slash" unicode="/" 
d="M454 798h49l-472 -926h-49z" />
    <glyph glyph-name="zero" unicode="0" horiz-adv-x="710" 
d="M356 35c36 0 68.5 8.66797 97.5 26.001s53.667 40.5 74 69.5s36 62.333 47 100s16.5 76.834 16.5 117.501v2c0 40.667 -5.5 80 -16.5 118s-26.833 71.5 -47.5 100.5s-45.667 52.333 -75 70s-62 26.5 -98 26.5s-68.5 -8.66699 -97.5 -26s-53.667 -40.5 -74 -69.5
s-36 -62.333 -47 -100s-16.5 -76.834 -16.5 -117.501v-2c0 -40.667 5.5 -79.834 16.5 -117.501s26.833 -71.167 47.5 -100.5s45.667 -52.833 75 -70.5s62 -26.5 98 -26.5zM354 -11.999c-44.667 0 -84.834 9.66699 -120.501 29s-66 45.5 -91 78.5s-44.167 71.333 -57.5 115
s-20 89.5 -20 137.5v2c0 48 6.83301 94 20.5 138s33.167 82.5 58.5 115.5s55.833 59.333 91.5 79s75.834 29.5 120.501 29.5s84.834 -9.66699 120.501 -29s66 -45.5 91 -78.5s44.167 -71.333 57.5 -115s20 -89.5 20 -137.5v-2c0 -48 -6.83301 -94 -20.5 -138
s-33.167 -82.5 -58.5 -115.5s-55.833 -59.333 -91.5 -79s-75.834 -29.5 -120.501 -29.5z" />
    <glyph glyph-name="one" unicode="1" horiz-adv-x="335" 
d="M179 651l-135 -46l-14 41l160 59h40v-705h-51v651z" />
    <glyph glyph-name="two" unicode="2" horiz-adv-x="590" 
d="M48 39l261 235.998c28.667 26 52.834 49.667 72.501 71s35.667 41.333 48 60s21.166 36.667 26.499 54s8 35.333 8 54c0 22.667 -4.33301 43.334 -13 62.001s-20.167 34.5 -34.5 47.5s-31.166 23 -50.499 30s-39.333 10.5 -60 10.5c-44.667 0 -82.667 -11.167 -114 -33.5
s-61.666 -54.5 -90.999 -96.5l-39 26c15.333 23.333 31.166 44.166 47.499 62.499s34.333 34 54 47s41.5 23 65.5 30s51.333 10.5 82 10.5c30 0 57.667 -4.83301 83 -14.5s47.166 -23.167 65.499 -40.5s32.833 -37.666 43.5 -60.999s16 -48.666 16 -75.999v-2
c0 -24 -3.33301 -46.5 -10 -67.5s-17.167 -42 -31.5 -63s-32.5 -42.833 -54.5 -65.5s-48.333 -48 -79 -76l-214 -194h396v-50h-478v39z" />
    <glyph glyph-name="three" unicode="3" horiz-adv-x="610" 
d="M311 -12c-57.333 0 -107.332 11.667 -149.999 35s-78.334 53.666 -107.001 90.999l40 33c28 -36 59.833 -63.667 95.5 -83s76.5 -29 122.5 -29c23.333 0 45.5 3.83301 66.5 11.5s39.333 18.167 55 31.5s28.167 29.5 37.5 48.5s14 40.167 14 63.5v2
c0 24.667 -5.5 46.334 -16.5 65.001s-26.167 34.5 -45.5 47.5s-42.333 22.833 -69 29.5s-55.667 10 -87 10h-38l-13 29l241 278h-367v49h438v-37l-237 -271c33.333 -2 65 -7.5 95 -16.5s56.333 -21.5 79 -37.5s40.667 -36 54 -60s20 -52 20 -84v-2
c0 -30.667 -6.16699 -58.5 -18.5 -83.5s-29 -46.5 -50 -64.5s-45.333 -31.833 -73 -41.5s-56.5 -14.5 -86.5 -14.5z" />
    <glyph glyph-name="four" unicode="4" horiz-adv-x="664" 
d="M445 216v414l-334 -414h334zM445 171h-379l-18 39l400 495h47v-489h114v-45h-114v-171h-50v171z" />
    <glyph glyph-name="five" unicode="5" horiz-adv-x="605" 
d="M302 -12c-48 0 -93.1641 10.998 -135.497 32.998s-78.833 48.667 -109.5 80l37 37c32 -32 65.667 -57.167 101 -75.5s71.666 -27.5 108.999 -27.5c28 0 53.5 4.5 76.5 13.5s42.667 21.5 59 37.5s29.166 34.667 38.499 56s14 44.333 14 69v2
c0 24 -4.66699 46.167 -14 66.5s-22.5 37.833 -39.5 52.5s-37.333 26.167 -61 34.5s-49.5 12.5 -77.5 12.5c-32.667 0 -61.667 -4.33301 -87 -13s-49 -19 -71 -31l-40 26l20 339h393v-50h-347l-17 -262c22.667 11.333 46 20.5 70 27.5s52.333 10.5 85 10.5
c34 0 65.5 -5.16699 94.5 -15.5s54.333 -24.666 76 -42.999s38.667 -40.5 51 -66.5s18.5 -54.667 18.5 -86v-2c0 -33.333 -6.16699 -63.666 -18.5 -90.999s-29.333 -51 -51 -71s-47.334 -35.5 -77.001 -46.5s-62.167 -16.5 -97.5 -16.5z" />
    <glyph glyph-name="six" unicode="6" horiz-adv-x="642" 
d="M335 35c28 0 53.5 4.83203 76.5 14.499s42.667 22.667 59 39s29 35.5 38 57.5s13.5 45.333 13.5 70v2c0 24 -4.66699 46.167 -14 66.5s-22.5 38 -39.5 53s-37 26.833 -60 35.5s-48.5 13 -76.5 13c-28.667 0 -55 -5 -79 -15s-44.5 -23.167 -61.5 -39.5
s-30.333 -34.833 -40 -55.5s-14.5 -41.667 -14.5 -63v-2c0 -25.333 5 -48.666 15 -69.999s23.833 -39.833 41.5 -55.5s38.667 -28 63 -37s50.5 -13.5 78.5 -13.5zM331 -12.001c-36 0 -69.334 6.33008 -100.001 18.9971s-56.667 29.667 -78 51
c-14.667 14.667 -27.5 30.334 -38.5 47.001s-20.333 35.667 -28 57s-13.334 45.833 -17.001 73.5s-5.5 59.5 -5.5 95.5v2c0 52.667 6.66699 102 20 148s32.333 86.167 57 120.5s54.667 61.333 90 81s74.666 29.5 117.999 29.5c40 0 76 -7.16699 108 -21.5
s63.333 -34.166 94 -59.499l-33 -40c-27.333 24 -54.666 42.333 -81.999 55s-57.666 19 -90.999 19c-35.333 0 -67.5 -8.83301 -96.5 -26.5s-53.5 -42.5 -73.5 -74.5s-35.167 -70.333 -45.5 -115s-14.833 -93.667 -13.5 -147c10 16.667 21.667 32.834 35 48.501
s28.833 29.5 46.5 41.5s37.834 21.667 60.501 29s48.334 11 77.001 11c32 0 62.5 -5.16699 91.5 -15.5s54.5 -24.833 76.5 -43.5s39.667 -41 53 -67s20 -54.667 20 -86v-2c0 -33.333 -6.33301 -64 -19 -92s-30 -52.167 -52 -72.5s-47.833 -36.333 -77.5 -48
s-61.834 -17.5 -96.501 -17.5z" />
    <glyph glyph-name="seven" unicode="7" horiz-adv-x="587" 
d="M474 650h-406v50h464v-38l-319 -662h-57z" />
    <glyph glyph-name="eight" unicode="8" horiz-adv-x="630" 
d="M315 37c32 0 60.833 4 86.5 12s47.334 18.833 65.001 32.5s31.167 29.334 40.5 47.001s14 36.5 14 56.5v2c0 22 -5.33301 42.167 -16 60.5s-25.334 34.166 -44.001 47.499s-40.5 23.666 -65.5 30.999s-51.833 11 -80.5 11s-55.5 -3.66699 -80.5 -11
s-46.833 -17.666 -65.5 -30.999s-33.334 -29.166 -44.001 -47.499s-16 -38.5 -16 -60.5v-2c0 -20 4.66699 -38.833 14 -56.5s22.833 -33.334 40.5 -47.001s39.334 -24.5 65.001 -32.5s54.5 -12 86.5 -12zM315 381c24.667 0 47.9922 3.5 69.9922 10.5s41.333 16.833 58 29.5
s29.834 27.834 39.501 45.501s14.5 37.167 14.5 58.5v2c0 20 -4.66699 38.333 -14 55s-22.166 31 -38.499 43s-35.666 21.333 -57.999 28s-46.166 10 -71.499 10s-49.166 -3.33301 -71.499 -10s-41.666 -16 -57.999 -28s-29.166 -26.333 -38.499 -43s-14 -35 -14 -55v-2
c0 -21.333 4.83301 -40.833 14.5 -58.5s22.834 -32.834 39.501 -45.501s36 -22.5 58 -29.5s45.333 -10.5 70 -10.5zM314.992 -10c-36.667 0 -70.834 4.83301 -102.501 14.5s-59.167 23.167 -82.5 40.5s-41.666 38 -54.999 62s-20 50.667 -20 80v2
c0 20.667 4 39.834 12 57.501s18.833 33.834 32.5 48.501s30 27.667 49 39s39.5 20.666 61.5 27.999c-17.333 6.66699 -33.833 15.167 -49.5 25.5s-29.5 22.166 -41.5 35.499s-21.667 28.5 -29 45.5s-11 35.833 -11 56.5v2c0 27.333 6.66699 52.166 20 74.499
s31 41.5 53 57.5s47.167 28.5 75.5 37.5s57.5 13.5 87.5 13.5s59.167 -4.5 87.5 -13.5s53.5 -21.5 75.5 -37.5s39.667 -35.167 53 -57.5s20 -47.166 20 -74.499v-2c0 -20.667 -3.66699 -39.5 -11 -56.5s-17 -32.167 -29 -45.5s-25.833 -25.166 -41.5 -35.499
s-32.167 -18.833 -49.5 -25.5c22 -7.33301 42.5 -16.666 61.5 -27.999s35.333 -24.333 49 -39s24.5 -30.834 32.5 -48.501s12 -36.834 12 -57.501v-2c0 -29.333 -6.66699 -56 -20 -80s-31.666 -44.667 -54.999 -62s-50.833 -30.833 -82.5 -40.5
s-65.834 -14.5 -102.501 -14.5z" />
    <glyph glyph-name="nine" unicode="9" horiz-adv-x="642" 
d="M310 307c30 0 57.001 5.16699 81.001 15.5s44.5 23.833 61.5 40.5s30 35.667 39 57s13.5 43 13.5 65v2c0 24.667 -5 47.834 -15 69.501s-23.667 40.5 -41 56.5s-38.333 28.667 -63 38s-51.334 14 -80.001 14s-54.5 -5.16699 -77.5 -15.5s-42.5 -24 -58.5 -41
s-28.333 -36.833 -37 -59.5s-13 -46 -13 -70v-2c0 -24.667 4.66699 -47.334 14 -68.001s22.5 -38.5 39.5 -53.5s37 -26.833 60 -35.5s48.5 -13 76.5 -13zM293.001 -12c-44 0 -82.832 8.33203 -116.499 24.999s-65.167 37.334 -94.5 62.001l33 40
c30 -26.667 59.333 -46.667 88 -60s59 -20 91 -20c35.333 0 67.666 9 96.999 27s54.333 43 75 75s36.334 70 47.001 114s15 92.333 13 145c-10 -18 -21.833 -35.167 -35.5 -51.5s-29.5 -30.666 -47.5 -42.999s-38.167 -22.166 -60.5 -29.499s-47.166 -11 -74.499 -11
c-35.333 0 -67.833 5.5 -97.5 16.5s-55.167 26.167 -76.5 45.5s-38 42 -50 68s-18 54 -18 84v2c0 32 6 62.333 18 91s28.833 53.667 50.5 75s47.5 38.166 77.5 50.499s63.333 18.5 100 18.5c38 0 71.833 -6.5 101.5 -19.5s55.167 -30.167 76.5 -51.5
c13.333 -13.333 25.5 -28.5 36.5 -45.5s20.333 -36.5 28 -58.5s13.5 -47 17.5 -75s6 -59.333 6 -94v-2c0 -55.333 -7.16699 -106 -21.5 -152s-34.333 -85.833 -60 -119.5s-55.834 -59.834 -90.501 -78.501s-72.334 -28 -113.001 -28z" />
    <glyph glyph-name="colon" unicode=":" horiz-adv-x="240" 
d="M87 85h66v-85h-66v85zM87 510h66v-85h-66v85z" />
    <glyph glyph-name="semicolon" unicode=";" horiz-adv-x="240" 
d="M58 -82c21.333 11.333 36.332 23 44.999 35s12.334 27.667 11.001 47h-27v85h66v-74c0 -31.333 -6.33301 -56 -19 -74s-34 -32.667 -64 -44zM86.999 510h66v-85h-66v85z" />
    <glyph glyph-name="semicolon" unicode="&#x37e;" horiz-adv-x="240" 
d="M58 -82c21.333 11.333 36.332 23 44.999 35s12.334 27.667 11.001 47h-27v85h66v-74c0 -31.333 -6.33301 -56 -19 -74s-34 -32.667 -64 -44zM86.999 510h66v-85h-66v85z" />
    <glyph glyph-name="less" unicode="&#x3c;" horiz-adv-x="640" 
d="M73 332v40l464 241v-54l-403 -206l403 -208v-54z" />
    <glyph glyph-name="equal" unicode="=" horiz-adv-x="640" 
d="M93 265h454v-51h-454v51zM93 490h454v-51h-454v51z" />
    <glyph glyph-name="greater" unicode="&#x3e;" horiz-adv-x="640" 
d="M103 145l403 206l-403 208v54l464 -241v-40l-464 -241v54z" />
    <glyph glyph-name="question" unicode="?" horiz-adv-x="534" 
d="M212 85h66v-85h-66v85zM216 345l5 5.00195c66.667 1.33301 118 16.333 154 45s54 67 54 115v2c0 20.667 -3.83301 40.167 -11.5 58.5s-18.667 34.333 -33 48s-31.833 24.5 -52.5 32.5s-43.667 12 -69 12c-40 0 -75.667 -9.16699 -107 -27.5s-60 -43.5 -86 -75.5l-36 30
c28.667 35.333 61 64 97 86s80.667 33 134 33c32.667 0 62.5 -5.16699 89.5 -15.5s49.833 -24.333 68.5 -42s33.167 -38.334 43.5 -62.001s15.5 -48.834 15.5 -75.501v-2c0 -31.333 -5.66699 -58.833 -17 -82.5s-26.5 -44 -45.5 -61s-41.5 -30.5 -67.5 -40.5
s-53.333 -16.667 -82 -20l-9 -125h-32z" />
    <glyph glyph-name="at" unicode="@" horiz-adv-x="980" 
d="M446 120c23.333 0 45.834 5.5 67.501 16.5s40.834 25.5 57.501 43.5s30 38.5 40 61.5s15 46.833 15 71.5c0 20 -3.33301 38.333 -10 55s-15.834 31.334 -27.501 44.001s-25.667 22.5 -42 29.5s-33.833 10.5 -52.5 10.5c-22.667 0 -44.834 -5 -66.501 -15
s-41 -23.833 -58 -41.5s-30.667 -38.5 -41 -62.5s-15.5 -50 -15.5 -78c0 -42.667 12.333 -75.834 37 -99.501s56.667 -35.5 96 -35.5zM499.001 -162c-64 0 -123.164 11.4961 -177.497 34.4961s-101.5 54.333 -141.5 94s-71.167 85.834 -93.5 138.501s-33.5 109 -33.5 169
s11.333 116.5 34 169.5s53.667 99.333 93 139s85.666 71.167 138.999 94.5s110.666 35 171.999 35s118.5 -10.667 171.5 -32s99.167 -50.166 138.5 -86.499s70.166 -78.5 92.499 -126.5s33.5 -98.333 33.5 -151c0 -42.667 -5.5 -79.334 -16.5 -110.001
s-25.167 -55.834 -42.5 -75.501s-36.833 -34.167 -58.5 -43.5s-43.167 -14 -64.5 -14c-35.333 0 -64.666 8.33301 -87.999 25s-39.333 39.334 -48 68.001c-10 -12.667 -20.833 -24.667 -32.5 -36s-24.5 -21.166 -38.5 -29.499s-29.167 -15 -45.5 -20s-34.5 -7.5 -54.5 -7.5
c-24 0 -46.833 4.33301 -68.5 13s-40.5 20.834 -56.5 36.501s-28.667 34.334 -38 56.001s-14 45.834 -14 72.501c0 36 6.83301 69.167 20.5 99.5s31.667 56.5 54 78.5s47.333 39.333 75 52s55.5 19 83.5 19c20 0 38 -2.5 54 -7.5s30 -11.833 42 -20.5
s22.333 -18.334 31 -29.001s16 -21.334 22 -32.001l14 75l48 -6l-37 -211c-6 -35.333 -9 -59.333 -9 -72c0 -28.667 7.83301 -50.5 23.5 -65.5s37.834 -22.5 66.501 -22.5c17.333 0 34.666 4 51.999 12s32.833 20.333 46.5 37s24.667 38.167 33 64.5s12.5 57.5 12.5 93.5
c0 46 -10.167 90.833 -30.5 134.5s-48.5 82.5 -84.5 116.5s-78.5 61.333 -127.5 82s-102.167 31 -159.5 31c-58 0 -111.667 -10.667 -161 -32s-92 -50.5 -128 -87.5s-64.167 -80 -84.5 -129s-30.5 -101.5 -30.5 -157.5s10.167 -108.5 30.5 -157.5
s48.666 -91.833 84.999 -128.5s79.833 -65.5 130.5 -86.5s106 -31.5 166 -31.5c50 0 94.5 5.66699 133.5 17s77.833 28.333 116.5 51l15 -25c-38.667 -23.333 -79.5 -41.666 -122.5 -54.999s-90.5 -20 -142.5 -20z" />
    <glyph glyph-name="A" unicode="A" horiz-adv-x="790" 
d="M578 243l-184 405l-185 -405h369zM370 705h50l326 -705h-57l-89 196h-413l-89 -196h-54z" />
    <glyph glyph-name="B" unicode="B" horiz-adv-x="722" 
d="M410 48c60 0 107.666 12.833 142.999 38.5s53 60.5 53 104.5v2c0 43.333 -18.167 76.833 -54.5 100.5s-89.166 35.5 -158.499 35.5h-237v-281h254zM386.999 377c26 0 50 3.16602 72 9.49902s41 15.5 57 27.5s28.5 27 37.5 45s13.5 38.667 13.5 62v2
c0 38.667 -15 69.834 -45 93.501s-73.333 35.5 -130 35.5h-236v-275h231zM103.999 699.999h289c40 0 75.5 -5.5 106.5 -16.5s56.167 -26.167 75.5 -45.5c30 -30 45 -66.667 45 -110v-2c0 -24 -3.5 -45 -10.5 -63s-16.167 -33.667 -27.5 -47s-24.166 -24.5 -38.499 -33.5
s-28.5 -16.5 -42.5 -22.5c20.667 -5.33301 40.667 -12.5 60 -21.5s36.166 -20.333 50.499 -34s25.833 -29.667 34.5 -48s13 -39.5 13 -63.5v-2c0 -29.333 -6 -55.833 -18 -79.5s-29 -43.667 -51 -60s-48.333 -29 -79 -38s-65 -13.5 -103 -13.5h-304v700z" />
    <glyph glyph-name="C" unicode="C" horiz-adv-x="738" 
d="M421 -12c-50 0 -96.3301 9.33105 -138.997 27.998s-79.5 44.167 -110.5 76.5s-55.167 70.5 -72.5 114.5s-26 91 -26 141v2c0 49.333 8.83301 96 26.5 140s42 82.5 73 115.5s67.833 59 110.5 78s89.334 28.5 140.001 28.5c31.333 0 59.666 -2.66699 84.999 -8
s48.833 -13 70.5 -23s42 -21.833 61 -35.5s37.5 -28.834 55.5 -45.501l-37 -38c-15.333 14.667 -31.333 28.334 -48 41.001s-34.5 23.5 -53.5 32.5s-39.667 16.167 -62 21.5s-46.5 8 -72.5 8c-42 0 -81 -8 -117 -24s-67.167 -38.167 -93.5 -66.5s-47 -61.5 -62 -99.5
s-22.5 -79 -22.5 -123v-2c0 -44 7.66699 -85.167 23 -123.5s36.166 -71.666 62.499 -99.999s57.5 -50.666 93.5 -66.999s75 -24.5 117 -24.5c50.667 0 94.667 9.33301 132 28s73.666 45.667 108.999 81l35 -34c-18.667 -18 -37.834 -34.5 -57.501 -49.5
s-40.667 -27.833 -63 -38.5s-46.5 -19 -72.5 -25s-54.333 -9 -85 -9z" />
    <glyph glyph-name="D" unicode="D" horiz-adv-x="782" 
d="M337 48c48.667 0 92.667 7.83301 132 23.5s72.666 37 99.999 64s48.5 58.667 63.5 95s22.5 75.5 22.5 117.5v2c0 41.333 -7.5 80.333 -22.5 117s-36.167 68.667 -63.5 96s-60.666 49 -99.999 65s-83.333 24 -132 24h-181v-604h181zM104 700l233 -0.00195312
c54.667 0 104.834 -8.83301 150.501 -26.5s85 -42.167 118 -73.5s58.5 -68.166 76.5 -110.499s27 -88.166 27 -137.499v-2c0 -49.333 -9 -95.333 -27 -138s-43.5 -79.667 -76.5 -111s-72.333 -56 -118 -74s-95.834 -27 -150.501 -27h-233v700z" />
    <glyph glyph-name="E" unicode="E" horiz-adv-x="670" 
d="M104 700h498v-48h-446v-275h401v-48h-401v-281h451v-48h-503v700z" />
    <glyph glyph-name="F" unicode="F" horiz-adv-x="656" 
d="M104 700h493v-48h-441v-287h396v-48h-396v-317h-52v700z" />
    <glyph glyph-name="G" unicode="G" horiz-adv-x="784" 
d="M425 -12c-55.333 0 -104.832 9.5 -148.499 28.5s-80.5 44.833 -110.5 77.5s-53 70.834 -69 114.501s-24 90.167 -24 139.5v2c0 47.333 8.16699 92.833 24.5 136.5s39.666 82.167 69.999 115.5s66.833 60 109.5 80s90 30 142 30c28.667 0 54.834 -2 78.501 -6
s45.667 -10 66 -18s39.666 -17.667 57.999 -29s36.166 -24.333 53.499 -39l-34 -39c-27.333 24 -58.5 44 -93.5 60s-78.833 24 -131.5 24c-42.667 0 -81.667 -8.33301 -117 -25s-65.833 -39.334 -91.5 -68.001s-45.5 -62 -59.5 -100s-21 -78 -21 -120v-2
c0 -45.333 6.83301 -87.333 20.5 -126s33.5 -72 59.5 -100s57.5 -50 94.5 -66s78.833 -24 125.5 -24c22 0 43.667 2.16699 65 6.5s41.5 10.166 60.5 17.499s36.833 15.833 53.5 25.5s31.334 19.834 44.001 30.501v201h-234v48h284v-270c-32 -28 -71.5 -52.5 -118.5 -73.5
s-99.167 -31.5 -156.5 -31.5z" />
    <glyph glyph-name="H" unicode="H" horiz-adv-x="760" 
d="M104 700h52v-324h448v324h52v-700h-52v328h-448v-328h-52v700z" />
    <glyph glyph-name="I" unicode="I" horiz-adv-x="274" 
d="M111 700h52v-700h-52v700z" />
    <glyph glyph-name="J" unicode="J" horiz-adv-x="549" 
d="M249 -10c-52 0 -95.0039 12.168 -129.004 36.501s-61.667 55.833 -83 94.5l43 27c10.667 -18 21.834 -34 33.501 -48s24.334 -25.667 38.001 -35s28.667 -16.333 45 -21s34.833 -7 55.5 -7c21.333 0 41.333 4 60 12s34.834 19.833 48.501 35.5s24.334 35.167 32.001 58.5
s11.5 50.333 11.5 81v476h52v-472c0 -40.667 -5.83301 -76.334 -17.5 -107.001s-27.167 -55.667 -46.5 -75c-18.667 -18.667 -40.167 -32.667 -64.5 -42s-50.5 -14 -78.5 -14z" />
    <glyph glyph-name="K" unicode="K" horiz-adv-x="715" 
d="M104 700h52v-460l446 460h71l-306 -309l319 -391h-68l-288 354l-174 -176v-178h-52v700z" />
    <glyph glyph-name="L" unicode="L" horiz-adv-x="619" 
d="M104 700h52v-652h411v-48h-463v700z" />
    <glyph glyph-name="M" unicode="M" horiz-adv-x="868" 
d="M104 700h49l281 -414l281 414h49v-700h-52v608l-277 -403h-4l-277 403v-608h-50v700z" />
    <glyph glyph-name="N" unicode="N" horiz-adv-x="790" 
d="M104 700h49l483 -609v609h50v-700h-39l-493 622v-622h-50v700z" />
    <glyph glyph-name="O" unicode="O" horiz-adv-x="850" 
d="M426 35c43.333 0 83.166 8.16699 119.499 24.5s67.666 38.666 93.999 66.999s46.833 61.5 61.5 99.5s22 78.667 22 122v2c0 43.333 -7.5 84.166 -22.5 122.499s-35.667 71.666 -62 99.999s-57.833 50.833 -94.5 67.5s-76.667 25 -120 25s-83.166 -8.16699 -119.499 -24.5
s-67.666 -38.666 -93.999 -66.999s-46.833 -61.5 -61.5 -99.5s-22 -78.667 -22 -122v-2c0 -43.333 7.5 -84.166 22.5 -122.499s35.667 -71.666 62 -99.999s57.833 -50.833 94.5 -67.5s76.667 -25 120 -25zM424 -12c-53.333 0 -101.497 9.83398 -144.497 29.501
s-79.833 46 -110.5 79s-54.334 71.167 -71.001 114.5s-25 89 -25 137v2c0 48 8.5 93.833 25.5 137.5s40.833 82.167 71.5 115.5s67.667 59.833 111 79.5s91.666 29.5 144.999 29.5c52.667 0 100.667 -9.83301 144 -29.5s80.333 -46 111 -79s54.334 -71.167 71.001 -114.5
s25 -89 25 -137c0.666992 -0.666992 0.666992 -1.33398 0 -2.00098c0 -48 -8.5 -93.833 -25.5 -137.5s-40.833 -82.167 -71.5 -115.5s-67.834 -59.833 -111.501 -79.5s-91.834 -29.5 -144.501 -29.5z" />
    <glyph glyph-name="P" unicode="P" horiz-adv-x="668" 
d="M348 309c32.667 0 62.333 4 89 12s49.5 19.5 68.5 34.5s33.833 33.167 44.5 54.5s16 45 16 71v2c0 28 -5.16699 52.5 -15.5 73.5s-24.833 38.5 -43.5 52.5s-41 24.667 -67 32s-54.667 11 -86 11h-198v-343h192zM103.999 700l253.999 -0.000976562
c38.667 0 73.834 -4.83301 105.501 -14.5s59 -23.667 82 -42s40.833 -40.666 53.5 -66.999s19 -56.5 19 -90.5v-2c0 -36.667 -7.33301 -69 -22 -97s-34.5 -51.333 -59.5 -70s-54 -32.667 -87 -42s-67.833 -14 -104.5 -14h-189v-261h-52v700z" />
    <glyph glyph-name="Q" unicode="Q" horiz-adv-x="850" 
d="M426 35c36.667 0 70.665 5.83105 101.998 17.498s59.333 27.834 84 48.501l-136 116l37 41l134 -122c24 28 42.667 60.167 56 96.5s20 74.833 20 115.5v2c0 43.333 -7.5 84.166 -22.5 122.499s-35.667 71.666 -62 99.999s-57.833 50.833 -94.5 67.5s-76.667 25 -120 25
s-83.166 -8.16699 -119.499 -24.5s-67.666 -38.666 -93.999 -66.999s-46.833 -61.5 -61.5 -99.5s-22 -78.667 -22 -122v-2c0 -43.333 7.5 -84.166 22.5 -122.499s35.667 -71.666 62 -99.999s57.833 -50.833 94.5 -67.5s76.667 -25 120 -25zM649.998 67.998
c-30 -25.333 -63.832 -45 -101.499 -59s-79.167 -21 -124.5 -21c-53.333 0 -101.5 9.83301 -144.5 29.5s-79.833 46 -110.5 79s-54.334 71.167 -71.001 114.5s-25 89 -25 137v2c0 48 8.5 93.833 25.5 137.5s40.833 82.167 71.5 115.5s67.667 59.833 111 79.5
s91.666 29.5 144.999 29.5c52.667 0 100.667 -9.83301 144 -29.5s80.333 -46 111 -79s54.334 -71.167 71.001 -114.5s25 -89 25 -137c0.666992 -0.666992 0.666992 -1.33398 0 -2.00098c0 -46.667 -7.83301 -91.167 -23.5 -133.5s-38.5 -80.166 -68.5 -113.499l100 -84
l-37 -40z" />
    <glyph glyph-name="R" unicode="R" horiz-adv-x="723" 
d="M392 337c29.333 0 56.5 3.66699 81.5 11s46.5 17.833 64.5 31.5s32.167 30.334 42.5 50.001s15.5 42.167 15.5 67.5v2c0 47.333 -17.5 84.666 -52.5 111.999s-84.5 41 -148.5 41h-239v-315h236zM104 700l294.001 -0.00195312c43.333 0 81.666 -6.16699 114.999 -18.5
s60.666 -29.166 81.999 -50.499c16.667 -16.667 29.667 -36.167 39 -58.5s14 -46.166 14 -71.499v-2c0 -29.333 -5.16699 -55.5 -15.5 -78.5s-24.666 -42.833 -42.999 -59.5s-40 -30.167 -65 -40.5s-52.167 -17.5 -81.5 -21.5l231 -299h-66l-223 290h-2h-227v-290h-52v700z
" />
    <glyph glyph-name="S" unicode="S" horiz-adv-x="640" 
d="M341 -10c-56 0 -106.5 9.32715 -151.5 27.9941s-88.5 46.667 -130.5 84l34 39c19.333 -18 38.5 -33.5 57.5 -46.5s38.5 -23.667 58.5 -32s41 -14.666 63 -18.999s46 -6.5 72 -6.5s50 3.5 72 10.5s40.667 16.667 56 29s27.333 27 36 44s13 35.5 13 55.5v2
c0 18.667 -2.83301 35.334 -8.5 50.001s-16 28 -31 40s-35.167 22.833 -60.5 32.5s-58 18.5 -98 26.5c-42 8.66699 -78 18.834 -108 30.501s-54.5 25.334 -73.5 41.001s-32.833 33.834 -41.5 54.501s-13 44.334 -13 71.001v2c0 26 5.66699 50.167 17 72.5s27 41.833 47 58.5
s43.667 29.667 71 39s57.333 14 90 14c50.667 0 94.5 -7 131.5 -21s73.167 -35.333 108.5 -64l-33 -41c-33.333 28.667 -66.833 49 -100.5 61s-69.834 18 -108.501 18c-26 0 -49.5 -3.5 -70.5 -10.5s-39 -16.5 -54 -28.5s-26.5 -26 -34.5 -42s-12 -33 -12 -51v-2
c0 -18.667 2.83301 -35.5 8.5 -50.5s16 -28.667 31 -41s35.833 -23.5 62.5 -33.5s60.667 -19.333 102 -28c81.333 -16.667 140 -40.167 176 -70.5s54 -71.166 54 -122.499v-2c0 -28 -5.83301 -53.833 -17.5 -77.5s-27.667 -43.834 -48 -60.501s-44.666 -29.667 -72.999 -39
s-59.5 -14 -93.5 -14z" />
    <glyph glyph-name="T" unicode="T" horiz-adv-x="648" 
d="M298 652h-244v48h540v-48h-244v-652h-52v652z" />
    <glyph glyph-name="U" unicode="U" horiz-adv-x="760" 
d="M380 -11c-42 0 -80.501 6.50098 -115.501 19.501s-65.333 32.333 -91 58s-45.5 57.167 -59.5 94.5s-21 80.666 -21 129.999v409h52v-404c0 -83.333 20.833 -147.5 62.5 -192.5s99.834 -67.5 174.501 -67.5c35.333 0 67.333 5.33301 96 16s53.167 26.667 73.5 48
s36 48 47 80s16.5 69 16.5 111v409h52v-403c0 -50 -7 -94.167 -21 -132.5s-33.667 -70.5 -59 -96.5s-55.5 -45.667 -90.5 -59s-73.833 -20 -116.5 -20z" />
    <glyph glyph-name="V" unicode="V" horiz-adv-x="750" 
d="M44 700h58l274 -644l275 644h55l-308 -705h-46z" />
    <glyph glyph-name="W" unicode="W" horiz-adv-x="1102" 
d="M50 700h58l220 -623l205 625h40l205 -625l220 623h54l-254 -705h-42l-205 608l-205 -608h-42z" />
    <glyph glyph-name="X" unicode="X" horiz-adv-x="722" 
d="M330 357l-269 343h62l239 -308l238 308h61l-268 -342l278 -358h-62l-249 323l-248 -323h-61z" />
    <glyph glyph-name="Y" unicode="Y" horiz-adv-x="716" 
d="M332 277l-300 423h65l262 -376l263 376h62l-300 -422v-278h-52v277z" />
    <glyph glyph-name="Z" unicode="Z" horiz-adv-x="688" 
d="M68 29l479 624h-462v47h536v-29l-479 -624h479v-47h-553v29z" />
    <glyph glyph-name="bracketleft" unicode="[" horiz-adv-x="430" 
d="M98 700h273v-38h-227v-754h227v-38h-273v830z" />
    <glyph glyph-name="backslash" unicode="\" 
d="M-3 798h49l472 -926h-49z" />
    <glyph glyph-name="bracketright" unicode="]" horiz-adv-x="430" 
d="M59 -92h227v754h-227v38h273v-830h-273v38z" />
    <glyph glyph-name="asciicircum" unicode="^" 
d="M228 703h44l158 -210h-53l-128 167l-128 -167h-51z" />
    <glyph glyph-name="underscore" unicode="_" horiz-adv-x="600" 
d="M-2 -116h604v-44h-604v44z" />
    <glyph glyph-name="grave" unicode="`" 
d="M157 698l61 30l88 -133h-42z" />
    <glyph glyph-name="a" unicode="a" horiz-adv-x="574" 
d="M251 34c26 0 50.668 3.83301 74.001 11.5s43.833 18.334 61.5 32.001s31.667 30.167 42 49.5s15.5 40.666 15.5 63.999v58c-21.333 5.33301 -46.333 10.5 -75 15.5s-61.334 7.5 -98.001 7.5c-54 0 -95.5 -10.833 -124.5 -32.5s-43.5 -50.5 -43.5 -86.5v-2
c0 -18.667 4 -35.167 12 -49.5s18.833 -26.5 32.5 -36.5s29.5 -17.667 47.5 -23s36.667 -8 56 -8zM248.001 -12c-24 0 -47.6631 3.33203 -70.9961 9.99902s-44.333 16.667 -63 30s-33.834 30 -45.501 50s-17.5 43.333 -17.5 70v2c0 26.667 5.5 50.334 16.5 71.001
s26.167 38 45.5 52s42.666 24.667 69.999 32s57.666 11 90.999 11c36 0 67 -2 93 -6s51.333 -9.33301 76 -16v22c0 52 -14.833 91 -44.5 117s-70.834 39 -123.501 39c-31.333 0 -60 -3.83301 -86 -11.5s-50.667 -17.5 -74 -29.5l-18 43c28 13.333 56.333 24 85 32
s60.667 12 96 12c70 0 123.667 -18.667 161 -56c34.667 -34.667 52 -82.667 52 -144v-318h-48v85c-8.66699 -12 -19.167 -23.833 -31.5 -35.5s-26.5 -22 -42.5 -31s-34.167 -16.333 -54.5 -22s-42.5 -8.5 -66.5 -8.5z" />
    <glyph glyph-name="b" unicode="b" horiz-adv-x="660" 
d="M347 35c28 0 54.166 5.00195 78.499 15.002s45.5 24.333 63.5 43s32.167 41.5 42.5 68.5s15.5 57.5 15.5 91.5v2c0 33.333 -5.33301 63.666 -16 90.999s-25.167 50.5 -43.5 69.5s-39.666 33.667 -63.999 44s-49.833 15.5 -76.5 15.5s-52.5 -5.33301 -77.5 -16
s-47.167 -25.667 -66.5 -45s-34.833 -42.333 -46.5 -69s-17.5 -56.334 -17.5 -89.001v-2c0 -32.667 5.83301 -62.5 17.5 -89.5s27.167 -50 46.5 -69s41.5 -33.833 66.5 -44.5s50.833 -16 77.5 -16zM351.999 -11.998c-25.333 0 -48.666 3.33398 -69.999 10.001
s-40.5 15.667 -57.5 27s-32.333 24.333 -46 39s-25.834 30 -36.501 46v-110h-49v730h49v-334c10.667 16.667 23 32.667 37 48s29.5 28.666 46.5 39.999s36 20.5 57 27.5s44.167 10.5 69.5 10.5c30.667 0 60.834 -6 90.501 -18s56.167 -29.333 79.5 -52
s42.166 -50.5 56.499 -83.5s21.5 -70.167 21.5 -111.5v-2c0 -41.333 -7.16699 -78.5 -21.5 -111.5s-33.166 -61 -56.499 -84s-49.833 -40.667 -79.5 -53s-59.834 -18.5 -90.501 -18.5z" />
    <glyph glyph-name="c" unicode="c" horiz-adv-x="571" 
d="M318 -12c-36.667 0 -70.834 7.16797 -102.501 21.501s-59.167 33.5 -82.5 57.5s-41.666 52 -54.999 84s-20 66 -20 102v2c0 36 6.66699 70 20 102s31.666 60.333 54.999 85s50.833 44.167 82.5 58.5s65.834 21.5 102.501 21.5c24 0 45.833 -2.5 65.5 -7.5
s37.834 -11.833 54.501 -20.5s31.834 -18.667 45.501 -30s26.5 -23.333 38.5 -36l-35 -36c-22 22.667 -46.333 42.334 -73 59.001s-59 25 -97 25c-29.333 0 -56.5 -5.66699 -81.5 -17s-46.667 -26.833 -65 -46.5s-32.833 -42.834 -43.5 -69.501s-16 -55.334 -16 -86.001v-2
c0 -30.667 5.5 -59.5 16.5 -86.5s26 -50.5 45 -70.5s41.167 -35.667 66.5 -47s52.666 -17 81.999 -17c36 0 68.167 8.16699 96.5 24.5s53.166 36.5 74.499 60.5l34 -30c-26 -29.333 -55.5 -53.5 -88.5 -72.5s-72.833 -28.5 -119.5 -28.5z" />
    <glyph glyph-name="d" unicode="d" horiz-adv-x="660" 
d="M313 35c26.667 0 52.501 5.33105 77.501 15.998s47.167 25.667 66.5 45s34.833 42.333 46.5 69s17.5 56.334 17.5 89.001v2c0 32.667 -5.83301 62.5 -17.5 89.5s-27.167 50 -46.5 69s-41.5 33.833 -66.5 44.5s-50.833 16 -77.5 16c-28 0 -54.167 -5 -78.5 -15
s-45.5 -24.333 -63.5 -43s-32.167 -41.5 -42.5 -68.5s-15.5 -57.5 -15.5 -91.5v-2c0 -33.333 5.33301 -63.666 16 -90.999s25.167 -50.5 43.5 -69.5s39.666 -33.667 63.999 -44s49.833 -15.5 76.5 -15.5zM308.001 -12.002c-30.667 0 -60.834 5.99902 -90.501 17.999
s-56.167 29.333 -79.5 52s-42.166 50.5 -56.499 83.5s-21.5 70.167 -21.5 111.5v2c0 41.333 7.16699 78.5 21.5 111.5s33.166 61 56.499 84s49.833 40.667 79.5 53s59.834 18.5 90.501 18.5c25.333 0 48.666 -3.33301 69.999 -10s40.5 -15.667 57.5 -27
s32.333 -24.333 46 -39s25.834 -30 36.501 -46v330h49v-730h-49v114c-11.333 -16.667 -23.833 -32.667 -37.5 -48s-29 -28.666 -46 -39.999s-36 -20.5 -57 -27.5s-44.167 -10.5 -69.5 -10.5z" />
    <glyph glyph-name="e" unicode="e" horiz-adv-x="584" 
d="M481 279c-2 26 -7.16699 50.833 -15.5 74.5s-20 44.667 -35 63s-33.5 33 -55.5 44s-47.667 16.5 -77 16.5c-25.333 0 -49 -5 -71 -15s-41.167 -23.833 -57.5 -41.5s-29.833 -38.667 -40.5 -63s-17 -50.5 -19 -78.5h371zM308 -12c-33.333 0 -65.167 6.33301 -95.5 19
s-57 30.667 -80 54s-41.167 51.333 -54.5 84s-20 69 -20 109v2c0 36.667 6.16699 71.167 18.5 103.5s29.333 60.5 51 84.5s47.167 43 76.5 57s61.333 21 96 21c36 0 68.333 -6.83301 97 -20.5s53.167 -32.5 73.5 -56.5s36 -52.167 47 -84.5s16.5 -67.5 16.5 -105.5v-10.5
c0 -2.33301 -0.333008 -5.5 -1 -9.5h-423c2 -32 9 -60.333 21 -85s27 -45.667 45 -63s38.5 -30.5 61.5 -39.5s47.167 -13.5 72.5 -13.5c40 0 73.833 7.66699 101.5 23s52.167 34.333 73.5 57l34 -30c-26 -28 -55.5 -51 -88.5 -69s-73.833 -27 -122.5 -27z" />
    <glyph glyph-name="f" unicode="f" horiz-adv-x="362" 
d="M123 465h-74.002v45h74v50c0 58.667 15 103 45 133c26.667 26.667 62.334 40 107.001 40c15.333 0 29 -1 41 -3s23.667 -5 35 -9v-46c-14.667 4.66699 -27.667 8 -39 10s-23.666 3 -36.999 3c-68.667 0 -103 -43 -103 -129v-49h178v-45h-178v-465h-49v465z" />
    <glyph glyph-name="g" unicode="g" horiz-adv-x="660" 
d="M310 85c26.667 0 52.667 4.66797 78 14.001s47.833 22.5 67.5 39.5s35.5 37.333 47.5 61s18 50.167 18 79.5v2c0 29.333 -6 56 -18 80s-27.833 44.5 -47.5 61.5s-42.167 30 -67.5 39s-51.333 13.5 -78 13.5s-52 -4.5 -76 -13.5s-45 -21.833 -63 -38.5
s-32.167 -36.834 -42.5 -60.501s-15.5 -50.5 -15.5 -80.5v-2c0 -28.667 5.33301 -55 16 -79s25 -44.5 43 -61.5s39 -30.333 63 -40s49 -14.5 75 -14.5zM317 -161.999c-86 0 -164.001 25.998 -234.001 77.998l29 40c62 -48 130.667 -72 206 -72
c29.333 0 56.166 4.16699 80.499 12.5s45.333 20.833 63 37.5s31.5 37.334 41.5 62.001s15 53.334 15 86.001v74c-11.333 -16 -24 -31 -38 -45s-29.667 -26.5 -47 -37.5s-36.666 -19.667 -57.999 -26s-44.666 -9.5 -69.999 -9.5c-30.667 0 -60.667 5.66699 -90 17
s-55.5 27.5 -78.5 48.5s-41.5 46.167 -55.5 75.5s-21 62.333 -21 99v2c0 36.667 7 70 21 100s32.5 55.5 55.5 76.5s49.167 37.167 78.5 48.5s59.333 17 90 17c25.333 0 48.833 -3.16699 70.5 -9.5s41.167 -14.666 58.5 -24.999s33 -22.5 47 -36.5s26.333 -28.333 37 -43v102
h49v-431c0 -37.333 -5.66699 -70.333 -17 -99s-27.333 -53.334 -48 -74.001c-22 -22 -48.833 -38.833 -80.5 -50.5s-66.5 -17.5 -104.5 -17.5z" />
    <glyph glyph-name="h" unicode="h" horiz-adv-x="613" 
d="M93 730l49 0.000976562v-315c17.333 30 40.666 55.333 69.999 76s67.333 31 114 31c32 0 60.667 -5.16699 86 -15.5s46.833 -24.833 64.5 -43.5s31 -40.834 40 -66.501s13.5 -53.834 13.5 -84.501v-312h-49v303c0 52.667 -14 94.834 -42 126.501s-68 47.5 -120 47.5
c-25.333 0 -48.666 -4.5 -69.999 -13.5s-40 -21.5 -56 -37.5s-28.5 -35.167 -37.5 -57.5s-13.5 -46.833 -13.5 -73.5v-295h-49v730z" />
    <glyph glyph-name="i" unicode="i" horiz-adv-x="249" 
d="M100 510h49v-510h-49v510zM94 710h61v-67h-61v67z" />
    <glyph glyph-name="j" unicode="j" horiz-adv-x="249" 
d="M40 -163c-14 0 -27.667 1.33203 -41 3.99902v43c6 -1.33301 12.833 -2.16602 20.5 -2.49902s14.167 -0.5 19.5 -0.5c18 0 32.667 5.83301 44 17.5s17 29.5 17 53.5v558h49v-555c0 -40 -9.83301 -69.667 -29.5 -89s-46.167 -29 -79.5 -29zM94 709.999h61v-67h-61v67z" />
    <glyph glyph-name="k" unicode="k" horiz-adv-x="560" 
d="M93 730h49v-547l316 327h65l-223 -226l230 -284h-62l-202 249l-124 -125v-124h-49v730z" />
    <glyph glyph-name="l" unicode="l" horiz-adv-x="249" 
d="M100 730h49v-730h-49v730z" />
    <glyph glyph-name="m" unicode="m" horiz-adv-x="951" 
d="M93 510h49.0029v-91c8 13.333 17.167 26.166 27.5 38.499s22.166 23.333 35.499 33s28.833 17.334 46.5 23.001s37.834 8.5 60.501 8.5c22 0 42.167 -3 60.5 -9s34.5 -14 48.5 -24s26.167 -21.667 36.5 -35s19.166 -27.333 26.499 -42c8 14 17.667 27.667 29 41
s24.5 25.166 39.5 35.499s32 18.5 51 24.5s40.5 9 64.5 9c30 0 57.167 -5.16699 81.5 -15.5s45 -24.666 62 -42.999s30 -40.666 39 -66.999s13.5 -55.5 13.5 -87.5v-309h-49v303c0 55.333 -13.333 98.166 -40 128.499s-63.667 45.5 -111 45.5
c-21.333 0 -41.833 -4 -61.5 -12s-36.834 -19.667 -51.501 -35s-26.334 -34.166 -35.001 -56.499s-13 -47.833 -13 -76.5v-297h-49v306c0 53.333 -13.333 95.166 -40 125.499s-63 45.5 -109 45.5c-22.667 0 -44 -4.66699 -64 -14s-37.333 -22.333 -52 -39
s-26.167 -36 -34.5 -58s-12.5 -46 -12.5 -72v-294h-49v510z" />
    <glyph glyph-name="n" unicode="n" horiz-adv-x="613" 
d="M93 510l49 0.000976562v-95c17.333 30 40.666 55.333 69.999 76s67.333 31 114 31c32 0 60.667 -5.16699 86 -15.5s46.833 -24.833 64.5 -43.5s31 -40.834 40 -66.501s13.5 -53.834 13.5 -84.501v-312h-49v303c0 52.667 -14 94.834 -42 126.501s-68 47.5 -120 47.5
c-25.333 0 -48.666 -4.5 -69.999 -13.5s-40 -21.5 -56 -37.5s-28.5 -35.167 -37.5 -57.5s-13.5 -46.833 -13.5 -73.5v-295h-49v510z" />
    <glyph glyph-name="o" unicode="o" horiz-adv-x="640" 
d="M321 34c30 0 57.833 5.83301 83.5 17.5s47.667 27.334 66 47.001s32.666 42.834 42.999 69.501s15.5 55 15.5 85v2c0 30.667 -5.33301 59.5 -16 86.5s-25.5 50.5 -44.5 70.5s-41.333 35.667 -67 47s-53.167 17 -82.5 17c-30 0 -57.833 -5.83301 -83.5 -17.5
s-47.667 -27.334 -66 -47.001s-32.666 -42.834 -42.999 -69.501s-15.5 -55 -15.5 -85v-2c0 -30.667 5.33301 -59.5 16 -86.5s25.5 -50.5 44.5 -70.5s41.333 -35.667 67 -47s53.167 -17 82.5 -17zM319 -12c-38 0 -72.833 7.16699 -104.5 21.5s-59.167 33.5 -82.5 57.5
s-41.5 52 -54.5 84s-19.5 66 -19.5 102v2c0 36 6.5 70 19.5 102s31.333 60.333 55 85s51.5 44.167 83.5 58.5s67 21.5 105 21.5s72.833 -7.16699 104.5 -21.5s59.167 -33.5 82.5 -57.5s41.5 -52 54.5 -84s19.5 -66 19.5 -102v-2c0 -36 -6.5 -70 -19.5 -102
s-31.333 -60.333 -55 -85s-51.5 -44.167 -83.5 -58.5s-67 -21.5 -105 -21.5z" />
    <glyph glyph-name="p" unicode="p" horiz-adv-x="660" 
d="M347 35c28 0 54.166 5.00195 78.499 15.002s45.5 24.333 63.5 43s32.167 41.5 42.5 68.5s15.5 57.5 15.5 91.5v2c0 33.333 -5.33301 63.666 -16 90.999s-25.167 50.5 -43.5 69.5s-39.666 33.667 -63.999 44s-49.833 15.5 -76.5 15.5s-52.5 -5.33301 -77.5 -16
s-47.167 -25.667 -66.5 -45s-34.833 -42.333 -46.5 -69s-17.5 -56.334 -17.5 -89.001v-2c0 -32.667 5.83301 -62.5 17.5 -89.5s27.167 -50 46.5 -69s41.5 -33.833 66.5 -44.5s50.833 -16 77.5 -16zM92.999 510.002l49 0.000976562v-114c10.667 16.667 23 32.667 37 48
s29.5 28.666 46.5 39.999s36 20.5 57 27.5s44.167 10.5 69.5 10.5c30.667 0 60.834 -6 90.501 -18s56.167 -29.333 79.5 -52s42.166 -50.5 56.499 -83.5s21.5 -70.167 21.5 -111.5v-2c0 -41.333 -7.16699 -78.5 -21.5 -111.5s-33.166 -61 -56.499 -84
s-49.833 -40.667 -79.5 -53s-59.834 -18.5 -90.501 -18.5c-25.333 0 -48.666 3.33301 -69.999 10s-40.5 15.667 -57.5 27s-32.333 24.333 -46 39s-25.834 30 -36.501 46v-270h-49v670z" />
    <glyph glyph-name="q" unicode="q" horiz-adv-x="660" 
d="M313 35c26.667 0 52.501 5.33105 77.501 15.998s47.167 25.667 66.5 45s34.833 42.333 46.5 69s17.5 56.334 17.5 89.001v2c0 32.667 -5.83301 62.5 -17.5 89.5s-27.167 50 -46.5 69s-41.5 33.833 -66.5 44.5s-50.833 16 -77.5 16c-28 0 -54.167 -5 -78.5 -15
s-45.5 -24.333 -63.5 -43s-32.167 -41.5 -42.5 -68.5s-15.5 -57.5 -15.5 -91.5v-2c0 -33.333 5.33301 -63.666 16 -90.999s25.167 -50.5 43.5 -69.5s39.666 -33.667 63.999 -44s49.833 -15.5 76.5 -15.5zM518.001 113.998c-11.333 -16.667 -23.833 -32.668 -37.5 -48.001
s-29 -28.666 -46 -39.999s-36 -20.5 -57 -27.5s-44.167 -10.5 -69.5 -10.5c-30.667 0 -60.834 6 -90.501 18s-56.167 29.333 -79.5 52s-42.166 50.5 -56.499 83.5s-21.5 70.167 -21.5 111.5v2c0 41.333 7.16699 78.5 21.5 111.5s33.166 61 56.499 84s49.833 40.667 79.5 53
s59.834 18.5 90.501 18.5c25.333 0 48.666 -3.33301 69.999 -10s40.5 -15.667 57.5 -27s32.333 -24.333 46 -39s25.834 -30 36.501 -46v110h49v-670h-49v274z" />
    <glyph glyph-name="r" unicode="r" horiz-adv-x="400" 
d="M93 510l49.001 0.000976562v-145c10 22.667 22.667 43.667 38 63s32.666 35.833 51.999 49.5s40.5 24 63.5 31s47.167 10.167 72.5 9.5v-54h-5c-29.333 0 -57.333 -5.5 -84 -16.5s-50.167 -27.333 -70.5 -49s-36.5 -48.334 -48.5 -80.001s-18 -68.167 -18 -109.5v-209
h-49v510z" />
    <glyph glyph-name="s" unicode="s" horiz-adv-x="497" 
d="M258 -10c-37.333 0 -74.6709 6.83398 -112.004 20.501s-69.666 31.5 -96.999 53.5l29 39c28 -21.333 57.333 -37.833 88 -49.5s62.334 -17.5 95.001 -17.5c34.667 0 63.834 8.66699 87.501 26s35.5 41 35.5 71v2c0 14.667 -3.66699 27.334 -11 38.001s-17.333 20 -30 28
s-27 14.667 -43 20s-33 10.666 -51 15.999l-62.5 19c-21 6.66699 -39.833 15.167 -56.5 25.5s-30.167 23.166 -40.5 38.499s-15.5 34.333 -15.5 57v2c0 20.667 4.16699 39.5 12.5 56.5s19.833 31.833 34.5 44.5s32.334 22.5 53.001 29.5s43.334 10.5 68.001 10.5
c30.667 0 62.167 -5 94.5 -15s61.166 -23.667 86.499 -41l-26 -41c-23.333 15.333 -48.5 27.666 -75.5 36.999s-54.167 14 -81.5 14c-35.333 0 -63.5 -8.5 -84.5 -25.5s-31.5 -38.167 -31.5 -63.5v-2c0 -14 4 -26.167 12 -36.5s18.5 -19.166 31.5 -26.499
s28.167 -13.833 45.5 -19.5s35 -11.167 53 -16.5c20.667 -6 41 -12.5 61 -19.5s38 -16 54 -27s28.833 -24.167 38.5 -39.5s14.5 -34.333 14.5 -57v-2c0 -22.667 -4.5 -43.167 -13.5 -61.5s-21.5 -34 -37.5 -47s-34.667 -23 -56 -30s-44.333 -10.5 -69 -10.5z" />
    <glyph glyph-name="t" unicode="t" horiz-adv-x="400" 
d="M263 -9c-20 0 -38.667 2.66602 -56 7.99902s-32.5 13.833 -45.5 25.5s-23.167 26.334 -30.5 44.001s-11 38.5 -11 62.5v334h-74v45h74v163h49v-163h179v-45h-179v-329c0 -36.667 9.5 -62.334 28.5 -77.001s43.5 -22 73.5 -22c12.667 0 24.667 1.33301 36 4
s24.333 7.33398 39 14.001v-46c-13.333 -6 -26.5 -10.5 -39.5 -13.5s-27.5 -4.5 -43.5 -4.5z" />
    <glyph glyph-name="u" unicode="u" horiz-adv-x="613" 
d="M287 -12c-32 0 -60.6689 5.16602 -86.002 15.499s-46.833 24.833 -64.5 43.5s-31 40.834 -40 66.501s-13.5 53.834 -13.5 84.501v312h49v-303c0 -52.667 14 -94.834 42 -126.501s68 -47.5 120 -47.5c24.667 0 47.834 4.5 69.501 13.5s40.5 21.5 56.5 37.5
s28.5 35.167 37.5 57.5s13.5 46.833 13.5 73.5v295h49v-510h-49v95c-17.333 -30 -40.666 -55.333 -69.999 -76s-67.333 -31 -114 -31z" />
    <glyph glyph-name="v" unicode="v" horiz-adv-x="582" 
d="M41 510h57l193 -455l195 455h55l-229 -514h-42z" />
    <glyph glyph-name="w" unicode="w" horiz-adv-x="861" 
d="M49 510h55l154 -448l154 450h39l154 -450l154 448h53l-187 -514h-42l-152 437l-153 -437h-42z" />
    <glyph glyph-name="x" unicode="x" horiz-adv-x="570" 
d="M254 260l-201 250h61l172 -216l172 216h59l-201 -249l209 -261h-61l-180 227l-180 -227h-59z" />
    <glyph glyph-name="y" unicode="y" horiz-adv-x="588" 
d="M155 -163c-19.333 0 -36.666 1.83301 -51.999 5.5s-31.666 9.16699 -48.999 16.5l17 43c13.333 -6.66699 26.333 -11.5 39 -14.5s28.667 -4.5 48 -4.5c13.333 0 25.666 2 36.999 6s22 10.833 32 20.5s19.667 22.167 29 37.5s18.666 34 27.999 56l-245 507h57l212 -456
l184 456h54l-221 -528c-22.667 -53.333 -47.5 -90.833 -74.5 -112.5s-58.833 -32.5 -95.5 -32.5z" />
    <glyph glyph-name="z" unicode="z" horiz-adv-x="554" 
d="M58 28l368 438h-354v44h427v-28l-368 -438h368v-44h-441v28z" />
    <glyph glyph-name="braceleft" unicode="{" horiz-adv-x="480" 
d="M416 -141c-44.667 8.66699 -80.835 19.165 -108.502 31.498s-49 26.833 -64 43.5s-25.167 35.667 -30.5 57s-8 45 -8 71v79c0 19.333 -1.83301 36.833 -5.5 52.5s-10 29 -19 40s-21.333 19.5 -37 25.5s-35.167 9 -58.5 9h-26v38h26c23.333 0 42.833 3 58.5 9
s28 14.5 37 25.5s15.333 24.333 19 40s5.5 33.167 5.5 52.5v79c0 26 2.66699 49.667 8 71s15.5 40.333 30.5 57s36.333 31.167 64 43.5s63.834 22.833 108.501 31.5l7 -32c-38 -10 -68.333 -20 -91 -30s-39.667 -21.667 -51 -35s-18.666 -29 -21.999 -47s-5 -39.667 -5 -65
v-75c0 -22 -2.5 -41 -7.5 -57s-12 -29.667 -21 -41s-19.833 -20.666 -32.5 -27.999s-27 -13.333 -43 -18c16.667 -5.33301 31.5 -11.666 44.5 -18.999s23.833 -16.5 32.5 -27.5s15.334 -24.5 20.001 -40.5s7 -35 7 -57v-75c0 -25.333 1.66699 -47 5 -65
s10.666 -33.667 21.999 -47s28.333 -25 51 -35s53 -20 91 -30z" />
    <glyph glyph-name="bar" unicode="|" horiz-adv-x="286" 
d="M121 798h44v-926h-44v926z" />
    <glyph glyph-name="braceright" unicode="}" horiz-adv-x="480" 
d="M57 -109c38 10 68.334 20.002 91.001 30.002s39.667 21.667 51 35s18.666 29 21.999 47s5 39.667 5 65v75c0 22 2.5 41 7.5 57s12 29.667 21 41s19.833 20.666 32.5 27.999s27 13.333 43 18c-16.667 5.33301 -31.5 11.666 -44.5 18.999s-23.833 16.5 -32.5 27.5
s-15.334 24.5 -20.001 40.5s-7 35 -7 57v75c0 25.333 -1.66699 47 -5 65s-10.666 33.667 -21.999 47s-28.333 25 -51 35s-53 20 -91 30l7 32c44.667 -8.66699 80.834 -19.167 108.501 -31.5s49 -26.833 64 -43.5s25.167 -35.667 30.5 -57s8 -45 8 -71v-79
c0 -19.333 1.83301 -36.833 5.5 -52.5s10 -29 19 -40s21.333 -19.5 37 -25.5s35.167 -9 58.5 -9h26v-38h-26c-23.333 0 -42.833 -3 -58.5 -9s-28 -14.5 -37 -25.5s-15.333 -24.333 -19 -40s-5.5 -33.167 -5.5 -52.5v-79c0 -26 -2.66699 -49.667 -8 -71
s-15.5 -40.333 -30.5 -57s-36.333 -31.167 -64 -43.5s-63.834 -22.833 -108.501 -31.5z" />
    <glyph glyph-name="asciitilde" unicode="~" horiz-adv-x="460" 
d="M82 251c9.33301 36 20.666 60.5 33.999 73.5s30 19.5 50 19.5c9.33301 0 19.666 -2.16699 30.999 -6.5s22.833 -9 34.5 -14l33.5 -14c10.667 -4.33301 20.334 -6.5 29.001 -6.5c12 0 21.5 3.5 28.5 10.5s14.167 20.167 21.5 39.5l34 -9
c-9.33301 -36 -20.666 -60.5 -33.999 -73.5s-30 -19.5 -50 -19.5c-9.33301 0 -19.666 2.16699 -30.999 6.5s-22.833 9 -34.5 14l-33.5 14c-10.667 4.33301 -20.334 6.5 -29.001 6.5c-12 0 -21.5 -3.5 -28.5 -10.5s-14.167 -20.167 -21.5 -39.5z" />
    <glyph glyph-name="nonbreakingspace" unicode="&#xa0;" horiz-adv-x="300" 
 />
    <glyph glyph-name="exclamdown" unicode="&#xa1;" horiz-adv-x="252" 
d="M97 70l15 447h28l15 -447v-70h-58v70zM93 700h66v-85h-66v85z" />
    <glyph glyph-name="cent" unicode="&#xa2;" horiz-adv-x="581" 
d="M330 576l-9 0.00195312c-29.333 0 -56.5 -5.66699 -81.5 -17s-46.667 -26.833 -65 -46.5s-32.833 -42.834 -43.5 -69.501s-16 -55.334 -16 -86.001v-2c0 -47.333 12.333 -89.5 37 -126.5s56.667 -63.5 96 -79.5zM236 103.002c-26 8.66699 -49.667 21.333 -71 38
s-39.666 36 -54.999 58s-27.166 46.167 -35.499 72.5s-12.5 53.5 -12.5 81.5v2c0 36 6.66699 70 20 102s31.666 60.333 54.999 85s50.833 44.167 82.5 58.5s65.834 21.5 102.501 21.5h15l16 84h50l-18 -91c30.667 -7.33301 57.167 -18.833 79.5 -34.5
s42.833 -33.167 61.5 -52.5l-35 -36c-16.667 17.333 -34.334 33 -53.001 47s-40.334 24 -65.001 30l-83 -432c10.667 -2 22.334 -3 35.001 -3c36 0 68.167 8.16699 96.5 24.5s53.166 36.5 74.499 60.5l34 -30c-26 -29.333 -55.5 -53.5 -88.5 -72.5
s-72.833 -28.5 -119.5 -28.5c-13.333 0 -26.333 1 -39 3l-19 -97h-50z" />
    <glyph glyph-name="sterling" unicode="&#xa3;" horiz-adv-x="644" 
d="M70 25l86.0029 19.999v260h-86v48h86v118c0 38 5.5 72.333 16.5 103s27.167 56.667 48.5 78c18.667 18.667 40.667 33 66 43s53.333 15 84 15c26 0 49.333 -2.66699 70 -8s39.5 -12.833 56.5 -22.5s32.333 -21 46 -34s26.167 -26.833 37.5 -41.5l-40 -31
c-10 12.667 -20.667 24.5 -32 35.5s-23.833 20.5 -37.5 28.5s-28.834 14.333 -45.501 19s-35.334 7 -56.001 7c-46.667 0 -84.334 -14.333 -113.001 -43c-33.333 -33.333 -50 -82.666 -50 -147.999v-119h298v-48h-298v-258h374v-47h-511v25z" />
    <glyph glyph-name="currency" unicode="&#xa4;" horiz-adv-x="720" 
d="M428 -12c-34.667 0 -67.002 6.16699 -97.002 18.5s-57.167 29.833 -81.5 52.5s-45 49.834 -62 81.501s-29.833 66.5 -38.5 104.5h-90v48h83c-2 18 -3 36.333 -3 55v2c0 11.333 0.5 22.833 1.5 34.5s2.16699 22.167 3.5 31.5h-85v48h94c8.66699 36 21.5 69.167 38.5 99.5
s37.167 56.5 60.5 78.5s49.333 39.167 78 51.5s59 18.5 91 18.5c29.333 0 55.833 -3.5 79.5 -10.5s45.167 -16.833 64.5 -29.5s36.833 -27.5 52.5 -44.5s30.167 -35.5 43.5 -55.5l-40 -27c-13.333 19.333 -27 36.5 -41 51.5s-29 27.667 -45 38s-33.333 18.166 -52 23.499
s-40 8 -64 8c-25.333 0 -49.166 -5 -71.499 -15s-42.833 -24 -61.5 -42s-35 -39.333 -49 -64s-25 -51.667 -33 -81h284v-48h-293c-1.33301 -9.33301 -2.5 -19.5 -3.5 -30.5s-1.5 -22.167 -1.5 -33.5v-2c0 -19.333 1 -38.333 3 -57h295v-48h-286
c8 -31.333 19.167 -60 33.5 -86s31.333 -48.167 51 -66.5s41.667 -32.666 66 -42.999s50.5 -15.5 78.5 -15.5c43.333 0 80.333 11.833 111 35.5s58.334 54.5 83.001 92.5l38 -25c-13.333 -20.667 -28 -40 -44 -58s-33.5 -33.833 -52.5 -47.5s-39.833 -24.334 -62.5 -32.001
s-48 -11.5 -76 -11.5z" />
    <glyph glyph-name="yen" unicode="&#xa5;" horiz-adv-x="686" 
d="M318 125h-213v45h213v98h-213v45h195l-268 387h63l249 -373l250 373h60l-269 -387h196v-45h-213v-98h213v-45h-213v-125h-50v125z" />
    <glyph glyph-name="section" unicode="&#xa7;" horiz-adv-x="632" 
d="M386 253c19.333 0 37 2.16504 53 6.49805s29.667 10.166 41 17.499s20 15.666 26 24.999s9 19 9 29v2c0 8.66699 -2.33301 17.334 -7 26.001s-12.834 17 -24.501 25s-27.667 15.833 -48 23.5s-46.166 15.5 -77.499 23.5c-24 6 -45.167 10.167 -63.5 12.5
s-34.5 3.5 -48.5 3.5c-19.333 0 -37 -2.16699 -53 -6.5s-29.667 -10.166 -41 -17.499s-20 -15.666 -26 -24.999s-9 -19 -9 -29v-2c0 -9.33301 2.33301 -18.166 7 -26.499s12.834 -16.5 24.501 -24.5s27.667 -15.833 48 -23.5s46.166 -15.5 77.499 -23.5
c23.333 -6 44.333 -10.167 63 -12.5s35 -3.5 49 -3.5zM329 -10.002c-44.667 0 -86.667 8.83301 -126 26.5s-73 40.5 -101 68.5l38 36c23.333 -23.333 51.5 -42.833 84.5 -58.5s69.5 -23.5 109.5 -23.5s69.333 7.5 88 22.5s28 33.167 28 54.5v2
c0 10.667 -3.16699 20.667 -9.5 30s-16.666 18.166 -30.999 26.499s-33.166 16.666 -56.499 24.999s-52 16.5 -86 24.5c-37.333 8.66699 -68.833 17.834 -94.5 27.501s-46.5 20 -62.5 31s-27.5 23.167 -34.5 36.5s-10.5 28 -10.5 44v2c0 30 13.333 55 40 75
s62.667 32.667 108 38c-26 11.333 -46.833 25.833 -62.5 43.5s-23.5 38.167 -23.5 61.5v2c0 38 16 68.333 48 91s74.667 34 128 34c44.667 0 86.667 -8.83301 126 -26.5s73 -40.5 101 -68.5l-38 -36c-23.333 23.333 -51.5 42.833 -84.5 58.5s-69.5 23.5 -109.5 23.5
s-69.333 -7.5 -88 -22.5s-28 -33.167 -28 -54.5v-2c0 -10.667 3.16699 -20.667 9.5 -30s16.666 -18.333 30.999 -27s33.166 -17 56.499 -25s52 -16 86 -24c37.333 -9.33301 68.833 -18.666 94.5 -27.999s46.5 -19.5 62.5 -30.5s27.5 -23.167 34.5 -36.5s10.5 -28 10.5 -44
v-2c0 -30 -13.333 -55 -40 -75s-62.667 -32.667 -108 -38c26 -11.333 46.833 -25.833 62.5 -43.5s23.5 -38.167 23.5 -61.5v-2c0 -38 -16 -68.333 -48 -91s-74.667 -34 -128 -34z" />
    <glyph glyph-name="dieresis" unicode="&#xa8;" 
d="M134 675h69v-80h-69v80zM297 675h69v-80h-69v80z" />
    <glyph glyph-name="copyright" unicode="&#xa9;" horiz-adv-x="830" 
d="M419 166c-26 0 -50 5 -72 15s-41.167 23.5 -57.5 40.5s-29.166 36.833 -38.499 59.5s-14 47 -14 73v2c0 25.333 4.66699 49.5 14 72.5s22.333 43.167 39 60.5s36 31 58 41s46 15 72 15c32.667 0 59.667 -5.83301 81 -17.5s41.333 -26.167 60 -43.5l-30 -31
c-14.667 14 -31.167 26.167 -49.5 36.5s-39.166 15.5 -62.499 15.5c-20 0 -38.333 -3.83301 -55 -11.5s-31.167 -18.334 -43.5 -32.001s-22 -29.5 -29 -47.5s-10.5 -37 -10.5 -57v-2c0 -20 3.66699 -39.167 11 -57.5s17.166 -34.166 29.499 -47.499s27 -24 44 -32
s35.167 -12 54.5 -12c24.667 0 45.667 4.5 63 13.5s34.666 21.833 51.999 38.5l28 -28c-19.333 -19.333 -40 -34.833 -62 -46.5s-49.333 -17.5 -82 -17.5zM414 16c47.333 0 91.333 8.83301 132 26.5s75.834 41.667 105.501 72s53 65.666 70 105.999s25.5 83.5 25.5 129.5v2
c0 46 -8.33301 89.167 -25 129.5s-39.834 75.5 -69.501 105.5s-64.667 53.667 -105 71s-84.166 26 -131.499 26s-91.333 -8.83301 -132 -26.5s-75.834 -41.667 -105.501 -72s-53 -65.666 -70 -105.999s-25.5 -83.5 -25.5 -129.5v-2c0 -46 8.33301 -89.167 25 -129.5
s39.834 -75.5 69.501 -105.5s64.667 -53.667 105 -71s84.166 -26 131.499 -26zM414 -12c-50.667 0 -98 9.5 -142 28.5s-82.167 44.833 -114.5 77.5s-57.833 70.834 -76.5 114.501s-28 90.167 -28 139.5v2c0 49.333 9.33301 95.833 28 139.5s44.334 82 77.001 115
s71.167 59.167 115.5 78.5s91.833 29 142.5 29s98 -9.5 142 -28.5s82.167 -44.833 114.5 -77.5s57.833 -70.834 76.5 -114.501s28 -90.167 28 -139.5v-2c0 -49.333 -9.33301 -95.833 -28 -139.5s-44.334 -82 -77.001 -115s-71.167 -59.167 -115.5 -78.5
s-91.833 -29 -142.5 -29z" />
    <glyph glyph-name="ordfeminine" unicode="&#xaa;" horiz-adv-x="390" 
d="M176 447c12.667 0 24.8311 1.83203 36.498 5.49902s21.834 8.83398 30.501 15.501s15.667 14.834 21 24.501s8 20.167 8 31.5v27c-11.333 3.33301 -23.666 6 -36.999 8s-29.333 3 -48 3c-25.333 0 -45.333 -5.33301 -60 -16s-22 -24.334 -22 -41.001v-2
c0 -18 7 -31.833 21 -41.5s30.667 -14.5 50 -14.5zM61.9971 332.999h252v-40h-252v40zM173.997 410.999c-13.333 0 -26.5029 1.83203 -39.5029 5.49902s-24.667 9.33398 -35 17.001s-18.666 17 -24.999 28s-9.5 24.167 -9.5 39.5v2c0 30 11.5 53 34.5 69s52.833 24 89.5 24
c18 0 33.5 -1 46.5 -3s25.167 -4.66699 36.5 -8v5c0 25.333 -7.5 44.5 -22.5 57.5s-35.167 19.5 -60.5 19.5c-16 0 -30.833 -2.16699 -44.5 -6.5s-28.167 -10.166 -43.5 -17.499l-13 34c17.333 8 34 14.333 50 19s33.667 7 53 7c38.667 0 68.667 -10.667 90 -32
c18.667 -18.667 28 -45.334 28 -80.001v-174h-37v41c-11.333 -14.667 -25.166 -26.167 -41.499 -34.5s-35.166 -12.5 -56.499 -12.5z" />
    <glyph glyph-name="guillemotleft" unicode="&#xab;" horiz-adv-x="515" 
d="M51 251v8l160 209l37 -24l-137 -188l137 -190l-37 -24zM255 251v8l160 209l37 -24l-137 -188l137 -190l-37 -24z" />
    <glyph glyph-name="registered" unicode="&#xae;" horiz-adv-x="830" 
d="M433 364c28 0 51.167 5.83301 69.5 17.5s27.5 29.167 27.5 52.5v2c0 20 -8.16699 36 -24.5 48s-38.833 18 -67.5 18h-119v-138h114zM276 543l163.999 -0.000976562c22.667 0 43.334 -3.33301 62.001 -10s33.667 -15.667 45 -27c8 -8 14.667 -17.833 20 -29.5
s8 -24.5 8 -38.5v-2c0 -30 -9.16699 -53.667 -27.5 -71s-42.5 -28.666 -72.5 -33.999l122 -154h-56l-116 147h-2h-104v-147h-43v366zM413.999 15.999c47.333 0 91.333 8.83301 132 26.5s75.834 41.667 105.501 72s53 65.666 70 105.999s25.5 83.5 25.5 129.5v2
c0 46 -8.33301 89.167 -25 129.5s-39.834 75.5 -69.501 105.5s-64.667 53.667 -105 71s-84.166 26 -131.499 26s-91.333 -8.83301 -132 -26.5s-75.834 -41.667 -105.501 -72s-53 -65.666 -70 -105.999s-25.5 -83.5 -25.5 -129.5v-2c0 -46 8.33301 -89.167 25 -129.5
s39.834 -75.5 69.501 -105.5s64.667 -53.667 105 -71s84.166 -26 131.499 -26zM413.999 -12.001c-50.667 0 -98 9.5 -142 28.5s-82.167 44.833 -114.5 77.5s-57.833 70.834 -76.5 114.501s-28 90.167 -28 139.5v2c0 49.333 9.33301 95.833 28 139.5s44.334 82 77.001 115
s71.167 59.167 115.5 78.5s91.833 29 142.5 29s98 -9.5 142 -28.5s82.167 -44.833 114.5 -77.5s57.833 -70.834 76.5 -114.501s28 -90.167 28 -139.5v-2c0 -49.333 -9.33301 -95.833 -28 -139.5s-44.334 -82 -77.001 -115s-71.167 -59.167 -115.5 -78.5
s-91.833 -29 -142.5 -29z" />
    <glyph glyph-name="macron" unicode="&#xaf;" 
d="M100 653h300v-53h-300v53z" />
    <glyph glyph-name="macron" unicode="&#x2c9;" 
d="M100 653h300v-53h-300v53z" />
    <glyph glyph-name="degree" unicode="&#xb0;" horiz-adv-x="450" 
d="M225 456c14.667 0 28.167 2.83301 40.5 8.5s23 13.167 32 22.5s16 20.166 21 32.499s7.5 25.166 7.5 38.499v2c0 13.333 -2.5 26.166 -7.5 38.499s-12 23.166 -21 32.499s-19.667 16.833 -32 22.5s-25.833 8.5 -40.5 8.5s-28.167 -2.83301 -40.5 -8.5
s-23 -13.167 -32 -22.5s-16 -20.166 -21 -32.499s-7.5 -25.166 -7.5 -38.499v-2c0 -13.333 2.5 -26.166 7.5 -38.499s12 -23.166 21 -32.499s19.667 -16.833 32 -22.5s25.833 -8.5 40.5 -8.5zM225 412c-20 0 -39 4 -57 12s-34 18.667 -48 32s-25.167 28.833 -33.5 46.5
s-12.5 36.167 -12.5 55.5v2c0 19.333 4.16699 37.833 12.5 55.5s19.5 33.167 33.5 46.5s30 24 48 32s37 12 57 12s39 -4 57 -12s34 -18.667 48 -32s25.167 -28.833 33.5 -46.5s12.5 -36.167 12.5 -55.5v-2c0 -19.333 -4.16699 -37.833 -12.5 -55.5
s-19.5 -33.167 -33.5 -46.5s-30 -24 -48 -32s-37 -12 -57 -12z" />
    <glyph glyph-name="plusminus" unicode="&#xb1;" horiz-adv-x="600" 
d="M303 -12c-56.667 0 -106.836 12.1709 -150.503 36.5039s-79.5 55.166 -107.5 92.499l42 31c26 -34.667 57 -62.167 93 -82.5s77.667 -30.5 125 -30.5c25.333 0 48.833 3.5 70.5 10.5s40.5 17 56.5 30s28.5 28.667 37.5 47s13.5 38.5 13.5 60.5v2
c0 45.333 -18 80.833 -54 106.5s-87 38.5 -153 38.5h-70v46h71c26.667 0 51.334 3.33301 74.001 10s42.334 16.167 59.001 28.5s29.834 27.5 39.501 45.5s14.5 38.667 14.5 62v2c0 20 -4 38.667 -12 56s-19.333 32.333 -34 45s-32.334 22.5 -53.001 29.5
s-43.667 10.5 -69 10.5c-42.667 0 -79.5 -9.16699 -110.5 -27.5s-59.167 -44.833 -84.5 -79.5l-40 24c26.667 39.333 59.334 70.833 98.001 94.5s85 35.5 139 35.5c32 0 61.333 -4.66699 88 -14s49.834 -22.333 69.501 -39s35 -36.334 46 -59.001s16.5 -47.334 16.5 -74.001
v-2c0 -24 -3.83301 -45.167 -11.5 -63.5s-17.834 -34.166 -30.501 -47.499s-27 -24.5 -43 -33.5s-32 -16.167 -48 -21.5c21.333 -6 41.333 -14.167 60 -24.5s34.834 -22.5 48.501 -36.5s24.334 -30.333 32.001 -49s11.5 -39.334 11.5 -62.001v-2
c0 -27.333 -5.83301 -52.833 -17.5 -76.5s-27.834 -44.334 -48.501 -62.001s-45.334 -31.667 -74.001 -42s-60 -15.5 -94 -15.5z" />
    <glyph glyph-name="acute" unicode="&#xb4;" 
d="M282 728l61 -30l-107 -103h-42z" />
    <glyph glyph-name="mu" unicode="&#xb5;" horiz-adv-x="850" 
d="M426 35c43.333 0 83.166 8.16699 119.499 24.5s67.666 38.666 93.999 66.999s46.833 61.5 61.5 99.5s22 78.667 22 122v2c0 43.333 -7.5 84.166 -22.5 122.499s-35.667 71.666 -62 99.999s-57.833 50.833 -94.5 67.5s-76.667 25 -120 25s-83.166 -8.16699 -119.499 -24.5
s-67.666 -38.666 -93.999 -66.999s-46.833 -61.5 -61.5 -99.5s-22 -78.667 -22 -122v-2c0 -43.333 7.5 -84.166 22.5 -122.499s35.667 -71.666 62 -99.999s57.833 -50.833 94.5 -67.5s76.667 -25 120 -25zM594 30c-24.667 -13.333 -51.165 -23.665 -79.498 -30.998
s-58.5 -11 -90.5 -11c-53.333 0 -101.5 9.83301 -144.5 29.5s-79.833 46 -110.5 79s-54.334 71.167 -71.001 114.5s-25 89 -25 137v2c0 48 8.5 93.833 25.5 137.5s40.833 82.167 71.5 115.5s67.667 59.833 111 79.5s91.666 29.5 144.999 29.5
c52.667 0 100.667 -9.83301 144 -29.5s80.333 -46 111 -79s54.334 -71.167 71.001 -114.5s25 -89 25 -137c0.666992 -0.666992 0.666992 -1.33398 0 -2.00098c0 -56.667 -11.833 -110.334 -35.5 -161.001s-56.834 -93 -99.501 -127l170 -159v-4h-75z" />
    <glyph glyph-name="mu" unicode="&#x3bc;" horiz-adv-x="850" 
d="M426 35c43.333 0 83.166 8.16699 119.499 24.5s67.666 38.666 93.999 66.999s46.833 61.5 61.5 99.5s22 78.667 22 122v2c0 43.333 -7.5 84.166 -22.5 122.499s-35.667 71.666 -62 99.999s-57.833 50.833 -94.5 67.5s-76.667 25 -120 25s-83.166 -8.16699 -119.499 -24.5
s-67.666 -38.666 -93.999 -66.999s-46.833 -61.5 -61.5 -99.5s-22 -78.667 -22 -122v-2c0 -43.333 7.5 -84.166 22.5 -122.499s35.667 -71.666 62 -99.999s57.833 -50.833 94.5 -67.5s76.667 -25 120 -25zM594 30c-24.667 -13.333 -51.165 -23.665 -79.498 -30.998
s-58.5 -11 -90.5 -11c-53.333 0 -101.5 9.83301 -144.5 29.5s-79.833 46 -110.5 79s-54.334 71.167 -71.001 114.5s-25 89 -25 137v2c0 48 8.5 93.833 25.5 137.5s40.833 82.167 71.5 115.5s67.667 59.833 111 79.5s91.666 29.5 144.999 29.5
c52.667 0 100.667 -9.83301 144 -29.5s80.333 -46 111 -79s54.334 -71.167 71.001 -114.5s25 -89 25 -137c0.666992 -0.666992 0.666992 -1.33398 0 -2.00098c0 -56.667 -11.833 -110.334 -35.5 -161.001s-56.834 -93 -99.501 -127l170 -159v-4h-75z" />
    <glyph glyph-name="paragraph" unicode="&#xb6;" horiz-adv-x="480" 
d="M333 277h-6c-38.667 0 -74.667 4.66699 -108 14s-62.333 23 -87 41s-44 40 -58 66s-21 56 -21 90v2c0 32.667 6.33301 62 19 88s30.5 48 53.5 66s50.333 31.833 82 41.5s66.5 14.5 104.5 14.5h74v-700h-53v277z" />
    <glyph glyph-name="periodcentered" unicode="&#xb7;" horiz-adv-x="230" 
d="M82 340h66v-85h-66v85z" />
    <glyph glyph-name="periodcentered" unicode="&#x2219;" horiz-adv-x="230" 
d="M82 340h66v-85h-66v85z" />
    <glyph glyph-name="cedilla" unicode="&#xb8;" 
d="M162 -122l90 132h43l-78 -158z" />
    <glyph glyph-name="ordmasculine" unicode="&#xba;" horiz-adv-x="390" 
d="M196 450c30 0 54.167 10.333 72.5 31s27.5 45.667 27.5 75v2c0 14.667 -2.66699 28.667 -8 42s-12.5 24.833 -21.5 34.5s-19.667 17.334 -32 23.001s-25.833 8.5 -40.5 8.5c-30 0 -54.167 -10.333 -72.5 -31s-27.5 -45.667 -27.5 -75v-2c0 -15.333 2.66699 -29.5 8 -42.5
s12.5 -24.333 21.5 -34s19.667 -17.334 32 -23.001s25.833 -8.5 40.5 -8.5zM51 333h288v-40h-288v40zM194 411c-20.667 0 -39.835 3.83301 -57.502 11.5s-32.834 18.167 -45.501 31.5s-22.5 28.833 -29.5 46.5s-10.5 36.167 -10.5 55.5v2c0 20 3.66699 38.833 11 56.5
s17.333 33.167 30 46.5s27.834 24 45.501 32s37.167 12 58.5 12c20.667 0 39.834 -3.83301 57.501 -11.5s32.834 -18.167 45.501 -31.5s22.5 -28.833 29.5 -46.5s10.5 -36.167 10.5 -55.5v-2c0 -20 -3.66699 -38.833 -11 -56.5s-17.333 -33.167 -30 -46.5s-28 -24 -46 -32
s-37.333 -12 -58 -12z" />
    <glyph glyph-name="guillemotright" unicode="&#xbb;" horiz-adv-x="515" 
d="M63 66l137 188l-137 190l37 24l160 -209v-8l-160 -209zM267 66l137 188l-137 190l37 24l160 -209v-8l-160 -209z" />
    <glyph glyph-name="questiondown" unicode="&#xbf;" horiz-adv-x="534" 
d="M269 -9c-33.333 0 -63.332 5.16602 -89.999 15.499s-49.334 24.333 -68.001 42s-33.167 38.334 -43.5 62.001s-15.5 48.834 -15.5 75.501v2c0 30.667 5.66699 58 17 82s26.5 44.5 45.5 61.5s41.333 30.5 67 40.5s53.167 16.667 82.5 20l9 125h32l13 -162l-5 -5
c-66.667 -1.33301 -118 -16.333 -154 -45s-54 -67 -54 -115v-2c0 -20.667 3.83301 -40.167 11.5 -58.5s18.667 -34.333 33 -48s31.833 -24.5 52.5 -32.5s43.667 -12 69 -12c40 0 75.667 9.16699 107 27.5s60 43.5 86 75.5l36 -30c-14 -18 -29 -34.167 -45 -48.5
s-33.333 -26.833 -52 -37.5s-39 -18.834 -61 -24.501s-46.333 -8.5 -73 -8.5zM256.001 699.999h66v-85h-66v85z" />
    <glyph glyph-name="Agrave" unicode="&#xc0;" horiz-adv-x="790" 
d="M263 868l61 30l88 -133h-42zM578 243l-184 405l-185 -405h369zM370 705h50l326 -705h-57l-89 196h-413l-89 -196h-54z" />
    <glyph glyph-name="Aacute" unicode="&#xc1;" horiz-adv-x="790" 
d="M466 898l61 -30l-107 -103h-42zM578 243l-184 405l-185 -405h369zM370 705h50l326 -705h-57l-89 196h-413l-89 -196h-54z" />
    <glyph glyph-name="Acircumflex" unicode="&#xc2;" horiz-adv-x="790" 
d="M375 882h40l100 -122h-47l-74 68l-74 -68h-45zM578 243l-184 405l-185 -405h369zM370 705h50l326 -705h-57l-89 196h-413l-89 -196h-54z" />
    <glyph glyph-name="Atilde" unicode="&#xc3;" horiz-adv-x="790" 
d="M247 765c9.33301 36 20.666 60.5 33.999 73.5s30 19.5 50 19.5c9.33301 0 19.666 -2.16699 30.999 -6.5s22.833 -9 34.5 -14l33.5 -14c10.667 -4.33301 20.334 -6.5 29.001 -6.5c12 0 21.5 3.5 28.5 10.5s14.167 20.167 21.5 39.5l34 -9
c-9.33301 -36 -20.666 -60.5 -33.999 -73.5s-30 -19.5 -50 -19.5c-9.33301 0 -19.666 2.16699 -30.999 6.5s-22.833 9 -34.5 14l-33.5 14c-10.667 4.33301 -20.334 6.5 -29.001 6.5c-12 0 -21.5 -3.5 -28.5 -10.5s-14.167 -20.167 -21.5 -39.5zM578 243l-184 405l-185 -405
h369zM370 705h50l326 -705h-57l-89 196h-413l-89 -196h-54z" />
    <glyph glyph-name="Adieresis" unicode="&#xc4;" horiz-adv-x="790" 
d="M279 845h69v-80h-69v80zM442 845h69v-80h-69v80zM578 243l-184 405l-185 -405h369zM370 705h50l326 -705h-57l-89 196h-413l-89 -196h-54z" />
    <glyph glyph-name="Aring" unicode="&#xc5;" horiz-adv-x="790" 
d="M578 243l-184 405l-185 -405h369zM395 702c16.667 0 31.167 6 43.5 18s18.5 26.333 18.5 43v2c0 16.667 -6 31 -18 43s-26.667 18 -44 18s-32 -6 -44 -18s-18 -26.333 -18 -43v-2c0 -16.667 6.16699 -31 18.5 -43s26.833 -18 43.5 -18zM357 677
c-17.333 7.33301 -31.668 18.668 -43.001 34.001s-17 32.666 -17 51.999v2c0 12.667 2.66699 24.667 8 36s12.5 21.166 21.5 29.499s19.333 15 31 20s24.167 7.5 37.5 7.5c12.667 0 25 -2.5 37 -7.5s22.5 -11.667 31.5 -20s16.167 -18.166 21.5 -29.499s8 -23.333 8 -36v-2
c0 -19.333 -5.66699 -36.5 -17 -51.5s-25.666 -26.167 -42.999 -33.5l313 -678h-57l-89 196h-413l-89 -196h-54z" />
    <glyph glyph-name="AE" unicode="&#xc6;" horiz-adv-x="1045" 
d="M494 243v410h-26l-246 -410h272zM444 700h533v-48h-431v-275h386v-48h-386v-281h436v-48h-488v196h-300l-118 -196h-56z" />
    <glyph glyph-name="Ccedilla" unicode="&#xc7;" horiz-adv-x="738" 
d="M312 -122l76.002 110.999c-46 4 -88.167 16.167 -126.5 36.5s-71.5 46.5 -99.5 78.5s-49.833 68.833 -65.5 110.5s-23.5 86.167 -23.5 133.5v2c0 49.333 8.83301 96 26.5 140s42 82.5 73 115.5s67.833 59 110.5 78s89.334 28.5 140.001 28.5
c31.333 0 59.666 -2.66699 84.999 -8s48.833 -13 70.5 -23s42 -21.833 61 -35.5s37.5 -28.834 55.5 -45.501l-37 -38c-15.333 14.667 -31.333 28.334 -48 41.001s-34.5 23.5 -53.5 32.5s-39.667 16.167 -62 21.5s-46.5 8 -72.5 8c-42 0 -81 -8 -117 -24
s-67.167 -38.167 -93.5 -66.5s-47 -61.5 -62 -99.5s-22.5 -79 -22.5 -123v-2c0 -44 7.66699 -85.167 23 -123.5s36.166 -71.666 62.499 -99.999s57.5 -50.666 93.5 -66.999s75 -24.5 117 -24.5c50.667 0 94.667 9.33301 132 28s73.666 45.667 108.999 81l35 -34
c-18 -17.333 -36.333 -33.333 -55 -48s-38.667 -27.334 -60 -38.001s-44.333 -19.167 -69 -25.5s-51.667 -9.83301 -81 -10.5l-67 -136z" />
    <glyph glyph-name="Egrave" unicode="&#xc8;" horiz-adv-x="670" 
d="M242 868l61 30l88 -133h-42zM104 700h498v-48h-446v-275h401v-48h-401v-281h451v-48h-503v700z" />
    <glyph glyph-name="Eacute" unicode="&#xc9;" horiz-adv-x="670" 
d="M397 898l61 -30l-107 -103h-42zM104 700h498v-48h-446v-275h401v-48h-401v-281h451v-48h-503v700z" />
    <glyph glyph-name="Ecircumflex" unicode="&#xca;" horiz-adv-x="670" 
d="M329 887h40l100 -122h-47l-74 68l-74 -68h-45zM104 700h498v-48h-446v-275h401v-48h-401v-281h451v-48h-503v700z" />
    <glyph glyph-name="Edieresis" unicode="&#xcb;" horiz-adv-x="670" 
d="M233 845h69v-80h-69v80zM396 845h69v-80h-69v80zM104 700h498v-48h-446v-275h401v-48h-401v-281h451v-48h-503v700z" />
    <glyph glyph-name="Igrave" unicode="&#xcc;" horiz-adv-x="274" 
d="M7 868l61 30l88 -133h-42zM111 700h52v-700h-52v700z" />
    <glyph glyph-name="Iacute" unicode="&#xcd;" horiz-adv-x="274" 
d="M206 898l61 -30l-107 -103h-42zM111 700h52v-700h-52v700z" />
    <glyph glyph-name="Icircumflex" unicode="&#xce;" horiz-adv-x="274" 
d="M118 887h40l100 -122h-47l-74 68l-74 -68h-45zM111 700h52v-700h-52v700z" />
    <glyph glyph-name="Idieresis" unicode="&#xcf;" horiz-adv-x="274" 
d="M22 845h69v-80h-69v80zM185 845h69v-80h-69v80zM111 700h52v-700h-52v700z" />
    <glyph glyph-name="Eth" unicode="&#xd0;" horiz-adv-x="812" 
d="M367 48c48.667 0 92.667 7.83301 132 23.5s72.666 37 99.999 64s48.5 58.667 63.5 95s22.5 75.5 22.5 117.5v2c0 41.333 -7.5 80.333 -22.5 117s-36.167 68.667 -63.5 96s-60.666 49 -99.999 65s-83.333 24 -132 24h-181v-276h232v-48h-232v-280h181zM134 328
l-75 -0.00195312v48h75v324h233c54.667 0 104.834 -8.83301 150.501 -26.5s85 -42.167 118 -73.5s58.5 -68.166 76.5 -110.499s27 -88.166 27 -137.499v-2c0 -49.333 -9 -95.333 -27 -138s-43.5 -79.667 -76.5 -111s-72.333 -56 -118 -74s-95.834 -27 -150.501 -27h-233v328
z" />
    <glyph glyph-name="Ntilde" unicode="&#xd1;" horiz-adv-x="790" 
d="M247 765c9.33301 36 20.666 60.5 33.999 73.5s30 19.5 50 19.5c9.33301 0 19.666 -2.16699 30.999 -6.5s22.833 -9 34.5 -14l33.5 -14c10.667 -4.33301 20.334 -6.5 29.001 -6.5c12 0 21.5 3.5 28.5 10.5s14.167 20.167 21.5 39.5l34 -9
c-9.33301 -36 -20.666 -60.5 -33.999 -73.5s-30 -19.5 -50 -19.5c-9.33301 0 -19.666 2.16699 -30.999 6.5s-22.833 9 -34.5 14l-33.5 14c-10.667 4.33301 -20.334 6.5 -29.001 6.5c-12 0 -21.5 -3.5 -28.5 -10.5s-14.167 -20.167 -21.5 -39.5zM104 700h49l483 -609v609h50
v-700h-39l-493 622v-622h-50v700z" />
    <glyph glyph-name="Ograve" unicode="&#xd2;" horiz-adv-x="850" 
d="M292 868l61 30l88 -133h-42zM426 35c43.333 0 83.166 8.16699 119.499 24.5s67.666 38.666 93.999 66.999s46.833 61.5 61.5 99.5s22 78.667 22 122v2c0 43.333 -7.5 84.166 -22.5 122.499s-35.667 71.666 -62 99.999s-57.833 50.833 -94.5 67.5s-76.667 25 -120 25
s-83.166 -8.16699 -119.499 -24.5s-67.666 -38.666 -93.999 -66.999s-46.833 -61.5 -61.5 -99.5s-22 -78.667 -22 -122v-2c0 -43.333 7.5 -84.166 22.5 -122.499s35.667 -71.666 62 -99.999s57.833 -50.833 94.5 -67.5s76.667 -25 120 -25zM424 -12
c-53.333 0 -101.497 9.83398 -144.497 29.501s-79.833 46 -110.5 79s-54.334 71.167 -71.001 114.5s-25 89 -25 137v2c0 48 8.5 93.833 25.5 137.5s40.833 82.167 71.5 115.5s67.667 59.833 111 79.5s91.666 29.5 144.999 29.5c52.667 0 100.667 -9.83301 144 -29.5
s80.333 -46 111 -79s54.334 -71.167 71.001 -114.5s25 -89 25 -137c0.666992 -0.666992 0.666992 -1.33398 0 -2.00098c0 -48 -8.5 -93.833 -25.5 -137.5s-40.833 -82.167 -71.5 -115.5s-67.834 -59.833 -111.501 -79.5s-91.834 -29.5 -144.501 -29.5z" />
    <glyph glyph-name="Oacute" unicode="&#xd3;" horiz-adv-x="850" 
d="M497 898l61 -30l-107 -103h-42zM426 35c43.333 0 83.166 8.16699 119.499 24.5s67.666 38.666 93.999 66.999s46.833 61.5 61.5 99.5s22 78.667 22 122v2c0 43.333 -7.5 84.166 -22.5 122.499s-35.667 71.666 -62 99.999s-57.833 50.833 -94.5 67.5s-76.667 25 -120 25
s-83.166 -8.16699 -119.499 -24.5s-67.666 -38.666 -93.999 -66.999s-46.833 -61.5 -61.5 -99.5s-22 -78.667 -22 -122v-2c0 -43.333 7.5 -84.166 22.5 -122.499s35.667 -71.666 62 -99.999s57.833 -50.833 94.5 -67.5s76.667 -25 120 -25zM424 -12
c-53.333 0 -101.497 9.83398 -144.497 29.501s-79.833 46 -110.5 79s-54.334 71.167 -71.001 114.5s-25 89 -25 137v2c0 48 8.5 93.833 25.5 137.5s40.833 82.167 71.5 115.5s67.667 59.833 111 79.5s91.666 29.5 144.999 29.5c52.667 0 100.667 -9.83301 144 -29.5
s80.333 -46 111 -79s54.334 -71.167 71.001 -114.5s25 -89 25 -137c0.666992 -0.666992 0.666992 -1.33398 0 -2.00098c0 -48 -8.5 -93.833 -25.5 -137.5s-40.833 -82.167 -71.5 -115.5s-67.834 -59.833 -111.501 -79.5s-91.834 -29.5 -144.501 -29.5z" />
    <glyph glyph-name="Ocircumflex" unicode="&#xd4;" horiz-adv-x="850" 
d="M405 887h40l100 -122h-47l-74 68l-74 -68h-45zM426 35c43.333 0 83.166 8.16699 119.499 24.5s67.666 38.666 93.999 66.999s46.833 61.5 61.5 99.5s22 78.667 22 122v2c0 43.333 -7.5 84.166 -22.5 122.499s-35.667 71.666 -62 99.999s-57.833 50.833 -94.5 67.5
s-76.667 25 -120 25s-83.166 -8.16699 -119.499 -24.5s-67.666 -38.666 -93.999 -66.999s-46.833 -61.5 -61.5 -99.5s-22 -78.667 -22 -122v-2c0 -43.333 7.5 -84.166 22.5 -122.499s35.667 -71.666 62 -99.999s57.833 -50.833 94.5 -67.5s76.667 -25 120 -25zM424 -12
c-53.333 0 -101.497 9.83398 -144.497 29.501s-79.833 46 -110.5 79s-54.334 71.167 -71.001 114.5s-25 89 -25 137v2c0 48 8.5 93.833 25.5 137.5s40.833 82.167 71.5 115.5s67.667 59.833 111 79.5s91.666 29.5 144.999 29.5c52.667 0 100.667 -9.83301 144 -29.5
s80.333 -46 111 -79s54.334 -71.167 71.001 -114.5s25 -89 25 -137c0.666992 -0.666992 0.666992 -1.33398 0 -2.00098c0 -48 -8.5 -93.833 -25.5 -137.5s-40.833 -82.167 -71.5 -115.5s-67.834 -59.833 -111.501 -79.5s-91.834 -29.5 -144.501 -29.5z" />
    <glyph glyph-name="Otilde" unicode="&#xd5;" horiz-adv-x="850" 
d="M277 765c9.33301 36 20.666 60.5 33.999 73.5s30 19.5 50 19.5c9.33301 0 19.666 -2.16699 30.999 -6.5s22.833 -9 34.5 -14l33.5 -14c10.667 -4.33301 20.334 -6.5 29.001 -6.5c12 0 21.5 3.5 28.5 10.5s14.167 20.167 21.5 39.5l34 -9
c-9.33301 -36 -20.666 -60.5 -33.999 -73.5s-30 -19.5 -50 -19.5c-9.33301 0 -19.666 2.16699 -30.999 6.5s-22.833 9 -34.5 14l-33.5 14c-10.667 4.33301 -20.334 6.5 -29.001 6.5c-12 0 -21.5 -3.5 -28.5 -10.5s-14.167 -20.167 -21.5 -39.5zM426 35
c43.333 0 83.166 8.16699 119.499 24.5s67.666 38.666 93.999 66.999s46.833 61.5 61.5 99.5s22 78.667 22 122v2c0 43.333 -7.5 84.166 -22.5 122.499s-35.667 71.666 -62 99.999s-57.833 50.833 -94.5 67.5s-76.667 25 -120 25s-83.166 -8.16699 -119.499 -24.5
s-67.666 -38.666 -93.999 -66.999s-46.833 -61.5 -61.5 -99.5s-22 -78.667 -22 -122v-2c0 -43.333 7.5 -84.166 22.5 -122.499s35.667 -71.666 62 -99.999s57.833 -50.833 94.5 -67.5s76.667 -25 120 -25zM424 -12c-53.333 0 -101.497 9.83398 -144.497 29.501
s-79.833 46 -110.5 79s-54.334 71.167 -71.001 114.5s-25 89 -25 137v2c0 48 8.5 93.833 25.5 137.5s40.833 82.167 71.5 115.5s67.667 59.833 111 79.5s91.666 29.5 144.999 29.5c52.667 0 100.667 -9.83301 144 -29.5s80.333 -46 111 -79s54.334 -71.167 71.001 -114.5
s25 -89 25 -137c0.666992 -0.666992 0.666992 -1.33398 0 -2.00098c0 -48 -8.5 -93.833 -25.5 -137.5s-40.833 -82.167 -71.5 -115.5s-67.834 -59.833 -111.501 -79.5s-91.834 -29.5 -144.501 -29.5z" />
    <glyph glyph-name="Odieresis" unicode="&#xd6;" horiz-adv-x="850" 
d="M309 845h69v-80h-69v80zM472 845h69v-80h-69v80zM426 35c43.333 0 83.166 8.16699 119.499 24.5s67.666 38.666 93.999 66.999s46.833 61.5 61.5 99.5s22 78.667 22 122v2c0 43.333 -7.5 84.166 -22.5 122.499s-35.667 71.666 -62 99.999s-57.833 50.833 -94.5 67.5
s-76.667 25 -120 25s-83.166 -8.16699 -119.499 -24.5s-67.666 -38.666 -93.999 -66.999s-46.833 -61.5 -61.5 -99.5s-22 -78.667 -22 -122v-2c0 -43.333 7.5 -84.166 22.5 -122.499s35.667 -71.666 62 -99.999s57.833 -50.833 94.5 -67.5s76.667 -25 120 -25zM424 -12
c-53.333 0 -101.497 9.83398 -144.497 29.501s-79.833 46 -110.5 79s-54.334 71.167 -71.001 114.5s-25 89 -25 137v2c0 48 8.5 93.833 25.5 137.5s40.833 82.167 71.5 115.5s67.667 59.833 111 79.5s91.666 29.5 144.999 29.5c52.667 0 100.667 -9.83301 144 -29.5
s80.333 -46 111 -79s54.334 -71.167 71.001 -114.5s25 -89 25 -137c0.666992 -0.666992 0.666992 -1.33398 0 -2.00098c0 -48 -8.5 -93.833 -25.5 -137.5s-40.833 -82.167 -71.5 -115.5s-67.834 -59.833 -111.501 -79.5s-91.834 -29.5 -144.501 -29.5z" />
    <glyph glyph-name="Oslash" unicode="&#xd8;" horiz-adv-x="850" 
d="M426 35c43.333 0 83.1689 8.16699 119.502 24.5s67.666 38.666 93.999 66.999s46.833 61.5 61.5 99.5s22 78.667 22 122v2c0 40 -6.5 78 -19.5 114s-31.167 68 -54.5 96l-419 -450c25.333 -23.333 54.666 -41.666 87.999 -54.999s69.333 -20 108 -20zM620.003 590
c-25.333 23.333 -54.6689 41.666 -88.002 54.999s-69.333 20 -108 20c-43.333 0 -83.166 -8.16699 -119.499 -24.5s-67.666 -38.666 -93.999 -66.999s-46.833 -61.5 -61.5 -99.5s-22 -78.667 -22 -122v-2c0 -40 6.5 -78 19.5 -114s31.167 -68 54.5 -96zM424 -12
c-46 0 -87.9971 7.33398 -125.997 22.001s-72 34.667 -102 60l-71 -75h-60l100 106c-30 33.333 -52.833 71.166 -68.5 113.499s-23.5 86.833 -23.5 133.5v2c0 48 8.5 93.833 25.5 137.5s40.833 82.167 71.5 115.5s67.667 59.833 111 79.5s91.666 29.5 144.999 29.5
c46 0 88 -7.33301 126 -22s72 -35 102 -61l71 76h60l-100 -106c30 -33.333 52.833 -71.166 68.5 -113.499s23.5 -86.833 23.5 -133.5c0.666992 -0.666992 0.666992 -1.33398 0 -2.00098c0 -48 -8.5 -93.833 -25.5 -137.5s-40.833 -82.167 -71.5 -115.5
s-67.834 -59.833 -111.501 -79.5s-91.834 -29.5 -144.501 -29.5z" />
    <glyph glyph-name="Ugrave" unicode="&#xd9;" horiz-adv-x="760" 
d="M256 863l61 30l88 -133h-42zM380 -11c-42 0 -80.501 6.50098 -115.501 19.501s-65.333 32.333 -91 58s-45.5 57.167 -59.5 94.5s-21 80.666 -21 129.999v409h52v-404c0 -83.333 20.833 -147.5 62.5 -192.5s99.834 -67.5 174.501 -67.5c35.333 0 67.333 5.33301 96 16
s53.167 26.667 73.5 48s36 48 47 80s16.5 69 16.5 111v409h52v-403c0 -50 -7 -94.167 -21 -132.5s-33.667 -70.5 -59 -96.5s-55.5 -45.667 -90.5 -59s-73.833 -20 -116.5 -20z" />
    <glyph glyph-name="Uacute" unicode="&#xda;" horiz-adv-x="760" 
d="M443 893l61 -30l-107 -103h-42zM380 -11c-42 0 -80.501 6.50098 -115.501 19.501s-65.333 32.333 -91 58s-45.5 57.167 -59.5 94.5s-21 80.666 -21 129.999v409h52v-404c0 -83.333 20.833 -147.5 62.5 -192.5s99.834 -67.5 174.501 -67.5c35.333 0 67.333 5.33301 96 16
s53.167 26.667 73.5 48s36 48 47 80s16.5 69 16.5 111v409h52v-403c0 -50 -7 -94.167 -21 -132.5s-33.667 -70.5 -59 -96.5s-55.5 -45.667 -90.5 -59s-73.833 -20 -116.5 -20z" />
    <glyph glyph-name="Ucircumflex" unicode="&#xdb;" horiz-adv-x="760" 
d="M360 882h40l100 -122h-47l-74 68l-74 -68h-45zM380 -11c-42 0 -80.501 6.50098 -115.501 19.501s-65.333 32.333 -91 58s-45.5 57.167 -59.5 94.5s-21 80.666 -21 129.999v409h52v-404c0 -83.333 20.833 -147.5 62.5 -192.5s99.834 -67.5 174.501 -67.5
c35.333 0 67.333 5.33301 96 16s53.167 26.667 73.5 48s36 48 47 80s16.5 69 16.5 111v409h52v-403c0 -50 -7 -94.167 -21 -132.5s-33.667 -70.5 -59 -96.5s-55.5 -45.667 -90.5 -59s-73.833 -20 -116.5 -20z" />
    <glyph glyph-name="Udieresis" unicode="&#xdc;" horiz-adv-x="760" 
d="M264 840h69v-80h-69v80zM427 840h69v-80h-69v80zM380 -11c-42 0 -80.501 6.50098 -115.501 19.501s-65.333 32.333 -91 58s-45.5 57.167 -59.5 94.5s-21 80.666 -21 129.999v409h52v-404c0 -83.333 20.833 -147.5 62.5 -192.5s99.834 -67.5 174.501 -67.5
c35.333 0 67.333 5.33301 96 16s53.167 26.667 73.5 48s36 48 47 80s16.5 69 16.5 111v409h52v-403c0 -50 -7 -94.167 -21 -132.5s-33.667 -70.5 -59 -96.5s-55.5 -45.667 -90.5 -59s-73.833 -20 -116.5 -20z" />
    <glyph glyph-name="Yacute" unicode="&#xdd;" horiz-adv-x="716" 
d="M428 893l61 -30l-107 -103h-42zM332 277l-300 423h65l262 -376l263 376h62l-300 -422v-278h-52v277z" />
    <glyph glyph-name="Thorn" unicode="&#xde;" horiz-adv-x="673" 
d="M348 181c32.667 0 62.333 4.16699 89 12.5s49.5 20 68.5 35s33.833 33.167 44.5 54.5s16 45 16 71v2c0 28 -5.16699 52.5 -15.5 73.5s-24.833 38.5 -43.5 52.5s-41 24.667 -67 32s-54.667 11 -86 11h-198v-344h192zM103.999 700h51.999v-127h202
c38.667 0 73.834 -4.83301 105.501 -14.5s59 -23.667 82 -42s40.833 -40.666 53.5 -66.999s19 -56.5 19 -90.5v-2c0 -36.667 -7.33301 -69 -22 -97s-34.5 -51.333 -59.5 -70s-54 -32.834 -87 -42.501s-67.833 -14.5 -104.5 -14.5h-189v-133h-52v700z" />
    <glyph glyph-name="germandbls" unicode="&#xdf;" horiz-adv-x="620" 
d="M289 41c66.667 1.33301 119.165 14.1709 157.498 38.5039s57.5 60.166 57.5 107.499v2c0 45.333 -19.167 80.333 -57.5 105s-90.833 40.667 -157.5 48v41c24.667 7.33301 47.334 16.333 68.001 27s38.5 23.167 53.5 37.5s26.833 30.666 35.5 48.999s13 38.833 13 61.5v2
c0 18.667 -3.66699 36.167 -11 52.5s-17.5 30.166 -30.5 41.499s-28.667 20.333 -47 27s-38.5 10 -60.5 10c-24 0 -46.333 -4.5 -67 -13.5s-38.5 -21.667 -53.5 -38s-26.667 -36.333 -35 -60s-12.5 -50.167 -12.5 -79.5v-500h-49v500c0 34.667 5.16699 66.5 15.5 95.5
s25 54 44 75s42 37.333 69 49s57.5 17.5 91.5 17.5c30 0 57.167 -4.5 81.5 -13.5s45.333 -21.333 63 -37s31.167 -34.167 40.5 -55.5s14 -44.333 14 -69v-2c0 -24 -4.5 -46.167 -13.5 -66.5s-20.833 -38.5 -35.5 -54.5s-31.5 -29.833 -50.5 -41.5
s-38.167 -20.834 -57.5 -27.501c26 -4.66699 51.167 -11.5 75.5 -20.5s45.833 -20.833 64.5 -35.5s33.667 -32.167 45 -52.5s17 -43.833 17 -70.5v-2c0 -30 -6.16699 -56.833 -18.5 -80.5s-30.166 -43.667 -53.499 -60s-51.5 -28.833 -84.5 -37.5s-70.167 -13 -111.5 -13v43
z" />
    <glyph glyph-name="agrave" unicode="&#xe0;" horiz-adv-x="574" 
d="M157 698l61 30l88 -133h-42zM251 34c26 0 50.668 3.83301 74.001 11.5s43.833 18.334 61.5 32.001s31.667 30.167 42 49.5s15.5 40.666 15.5 63.999v58c-21.333 5.33301 -46.333 10.5 -75 15.5s-61.334 7.5 -98.001 7.5c-54 0 -95.5 -10.833 -124.5 -32.5
s-43.5 -50.5 -43.5 -86.5v-2c0 -18.667 4 -35.167 12 -49.5s18.833 -26.5 32.5 -36.5s29.5 -17.667 47.5 -23s36.667 -8 56 -8zM248.001 -12c-24 0 -47.6631 3.33203 -70.9961 9.99902s-44.333 16.667 -63 30s-33.834 30 -45.501 50s-17.5 43.333 -17.5 70v2
c0 26.667 5.5 50.334 16.5 71.001s26.167 38 45.5 52s42.666 24.667 69.999 32s57.666 11 90.999 11c36 0 67 -2 93 -6s51.333 -9.33301 76 -16v22c0 52 -14.833 91 -44.5 117s-70.834 39 -123.501 39c-31.333 0 -60 -3.83301 -86 -11.5s-50.667 -17.5 -74 -29.5l-18 43
c28 13.333 56.333 24 85 32s60.667 12 96 12c70 0 123.667 -18.667 161 -56c34.667 -34.667 52 -82.667 52 -144v-318h-48v85c-8.66699 -12 -19.167 -23.833 -31.5 -35.5s-26.5 -22 -42.5 -31s-34.167 -16.333 -54.5 -22s-42.5 -8.5 -66.5 -8.5z" />
    <glyph glyph-name="aacute" unicode="&#xe1;" horiz-adv-x="574" 
d="M344 728l61 -30l-107 -103h-42zM251 34c26 0 50.668 3.83301 74.001 11.5s43.833 18.334 61.5 32.001s31.667 30.167 42 49.5s15.5 40.666 15.5 63.999v58c-21.333 5.33301 -46.333 10.5 -75 15.5s-61.334 7.5 -98.001 7.5c-54 0 -95.5 -10.833 -124.5 -32.5
s-43.5 -50.5 -43.5 -86.5v-2c0 -18.667 4 -35.167 12 -49.5s18.833 -26.5 32.5 -36.5s29.5 -17.667 47.5 -23s36.667 -8 56 -8zM248.001 -12c-24 0 -47.6631 3.33203 -70.9961 9.99902s-44.333 16.667 -63 30s-33.834 30 -45.501 50s-17.5 43.333 -17.5 70v2
c0 26.667 5.5 50.334 16.5 71.001s26.167 38 45.5 52s42.666 24.667 69.999 32s57.666 11 90.999 11c36 0 67 -2 93 -6s51.333 -9.33301 76 -16v22c0 52 -14.833 91 -44.5 117s-70.834 39 -123.501 39c-31.333 0 -60 -3.83301 -86 -11.5s-50.667 -17.5 -74 -29.5l-18 43
c28 13.333 56.333 24 85 32s60.667 12 96 12c70 0 123.667 -18.667 161 -56c34.667 -34.667 52 -82.667 52 -144v-318h-48v85c-8.66699 -12 -19.167 -23.833 -31.5 -35.5s-26.5 -22 -42.5 -31s-34.167 -16.333 -54.5 -22s-42.5 -8.5 -66.5 -8.5z" />
    <glyph glyph-name="acircumflex" unicode="&#xe2;" horiz-adv-x="574" 
d="M270 717h40l100 -122h-47l-74 68l-74 -68h-45zM251 34c26 0 50.668 3.83301 74.001 11.5s43.833 18.334 61.5 32.001s31.667 30.167 42 49.5s15.5 40.666 15.5 63.999v58c-21.333 5.33301 -46.333 10.5 -75 15.5s-61.334 7.5 -98.001 7.5
c-54 0 -95.5 -10.833 -124.5 -32.5s-43.5 -50.5 -43.5 -86.5v-2c0 -18.667 4 -35.167 12 -49.5s18.833 -26.5 32.5 -36.5s29.5 -17.667 47.5 -23s36.667 -8 56 -8zM248.001 -12c-24 0 -47.6631 3.33203 -70.9961 9.99902s-44.333 16.667 -63 30s-33.834 30 -45.501 50
s-17.5 43.333 -17.5 70v2c0 26.667 5.5 50.334 16.5 71.001s26.167 38 45.5 52s42.666 24.667 69.999 32s57.666 11 90.999 11c36 0 67 -2 93 -6s51.333 -9.33301 76 -16v22c0 52 -14.833 91 -44.5 117s-70.834 39 -123.501 39c-31.333 0 -60 -3.83301 -86 -11.5
s-50.667 -17.5 -74 -29.5l-18 43c28 13.333 56.333 24 85 32s60.667 12 96 12c70 0 123.667 -18.667 161 -56c34.667 -34.667 52 -82.667 52 -144v-318h-48v85c-8.66699 -12 -19.167 -23.833 -31.5 -35.5s-26.5 -22 -42.5 -31s-34.167 -16.333 -54.5 -22
s-42.5 -8.5 -66.5 -8.5z" />
    <glyph glyph-name="atilde" unicode="&#xe3;" horiz-adv-x="574" 
d="M142 595c9.33301 36 20.666 60.5 33.999 73.5s30 19.5 50 19.5c9.33301 0 19.666 -2.16699 30.999 -6.5s22.833 -9 34.5 -14l33.5 -14c10.667 -4.33301 20.334 -6.5 29.001 -6.5c12 0 21.5 3.5 28.5 10.5s14.167 20.167 21.5 39.5l34 -9
c-9.33301 -36 -20.666 -60.5 -33.999 -73.5s-30 -19.5 -50 -19.5c-9.33301 0 -19.666 2.16699 -30.999 6.5s-22.833 9 -34.5 14l-33.5 14c-10.667 4.33301 -20.334 6.5 -29.001 6.5c-12 0 -21.5 -3.5 -28.5 -10.5s-14.167 -20.167 -21.5 -39.5zM251 34
c26 0 50.668 3.83301 74.001 11.5s43.833 18.334 61.5 32.001s31.667 30.167 42 49.5s15.5 40.666 15.5 63.999v58c-21.333 5.33301 -46.333 10.5 -75 15.5s-61.334 7.5 -98.001 7.5c-54 0 -95.5 -10.833 -124.5 -32.5s-43.5 -50.5 -43.5 -86.5v-2
c0 -18.667 4 -35.167 12 -49.5s18.833 -26.5 32.5 -36.5s29.5 -17.667 47.5 -23s36.667 -8 56 -8zM248.001 -12c-24 0 -47.6631 3.33203 -70.9961 9.99902s-44.333 16.667 -63 30s-33.834 30 -45.501 50s-17.5 43.333 -17.5 70v2c0 26.667 5.5 50.334 16.5 71.001
s26.167 38 45.5 52s42.666 24.667 69.999 32s57.666 11 90.999 11c36 0 67 -2 93 -6s51.333 -9.33301 76 -16v22c0 52 -14.833 91 -44.5 117s-70.834 39 -123.501 39c-31.333 0 -60 -3.83301 -86 -11.5s-50.667 -17.5 -74 -29.5l-18 43c28 13.333 56.333 24 85 32
s60.667 12 96 12c70 0 123.667 -18.667 161 -56c34.667 -34.667 52 -82.667 52 -144v-318h-48v85c-8.66699 -12 -19.167 -23.833 -31.5 -35.5s-26.5 -22 -42.5 -31s-34.167 -16.333 -54.5 -22s-42.5 -8.5 -66.5 -8.5z" />
    <glyph glyph-name="adieresis" unicode="&#xe4;" horiz-adv-x="574" 
d="M174 675h69v-80h-69v80zM337 675h69v-80h-69v80zM251 34c26 0 50.668 3.83301 74.001 11.5s43.833 18.334 61.5 32.001s31.667 30.167 42 49.5s15.5 40.666 15.5 63.999v58c-21.333 5.33301 -46.333 10.5 -75 15.5s-61.334 7.5 -98.001 7.5
c-54 0 -95.5 -10.833 -124.5 -32.5s-43.5 -50.5 -43.5 -86.5v-2c0 -18.667 4 -35.167 12 -49.5s18.833 -26.5 32.5 -36.5s29.5 -17.667 47.5 -23s36.667 -8 56 -8zM248.001 -12c-24 0 -47.6631 3.33203 -70.9961 9.99902s-44.333 16.667 -63 30s-33.834 30 -45.501 50
s-17.5 43.333 -17.5 70v2c0 26.667 5.5 50.334 16.5 71.001s26.167 38 45.5 52s42.666 24.667 69.999 32s57.666 11 90.999 11c36 0 67 -2 93 -6s51.333 -9.33301 76 -16v22c0 52 -14.833 91 -44.5 117s-70.834 39 -123.501 39c-31.333 0 -60 -3.83301 -86 -11.5
s-50.667 -17.5 -74 -29.5l-18 43c28 13.333 56.333 24 85 32s60.667 12 96 12c70 0 123.667 -18.667 161 -56c34.667 -34.667 52 -82.667 52 -144v-318h-48v85c-8.66699 -12 -19.167 -23.833 -31.5 -35.5s-26.5 -22 -42.5 -31s-34.167 -16.333 -54.5 -22
s-42.5 -8.5 -66.5 -8.5z" />
    <glyph glyph-name="aring" unicode="&#xe5;" horiz-adv-x="574" 
d="M290 625c16.667 0 31.167 6 43.5 18s18.5 26.333 18.5 43v2c0 16.667 -6 31 -18 43s-26.667 18 -44 18s-32 -6 -44 -18s-18 -26.333 -18 -43v-2c0 -16.667 6.16699 -31 18.5 -43s26.833 -18 43.5 -18zM290 593c-13.333 0 -25.833 2.5 -37.5 7.5s-22 11.667 -31 20
s-16.167 18.166 -21.5 29.499s-8 23.333 -8 36v2c0 12.667 2.66699 24.667 8 36s12.5 21.166 21.5 29.499s19.333 15 31 20s24.167 7.5 37.5 7.5c12.667 0 25 -2.5 37 -7.5s22.5 -11.667 31.5 -20s16.167 -18.166 21.5 -29.499s8 -23.333 8 -36v-2
c0 -12.667 -2.66699 -24.667 -8 -36s-12.5 -21.166 -21.5 -29.499s-19.5 -15 -31.5 -20s-24.333 -7.5 -37 -7.5zM251 34c26 0 50.668 3.83301 74.001 11.5s43.833 18.334 61.5 32.001s31.667 30.167 42 49.5s15.5 40.666 15.5 63.999v58
c-21.333 5.33301 -46.333 10.5 -75 15.5s-61.334 7.5 -98.001 7.5c-54 0 -95.5 -10.833 -124.5 -32.5s-43.5 -50.5 -43.5 -86.5v-2c0 -18.667 4 -35.167 12 -49.5s18.833 -26.5 32.5 -36.5s29.5 -17.667 47.5 -23s36.667 -8 56 -8zM248.001 -12
c-24 0 -47.6631 3.33203 -70.9961 9.99902s-44.333 16.667 -63 30s-33.834 30 -45.501 50s-17.5 43.333 -17.5 70v2c0 26.667 5.5 50.334 16.5 71.001s26.167 38 45.5 52s42.666 24.667 69.999 32s57.666 11 90.999 11c36 0 67 -2 93 -6s51.333 -9.33301 76 -16v22
c0 52 -14.833 91 -44.5 117s-70.834 39 -123.501 39c-31.333 0 -60 -3.83301 -86 -11.5s-50.667 -17.5 -74 -29.5l-18 43c28 13.333 56.333 24 85 32s60.667 12 96 12c70 0 123.667 -18.667 161 -56c34.667 -34.667 52 -82.667 52 -144v-318h-48v85
c-8.66699 -12 -19.167 -23.833 -31.5 -35.5s-26.5 -22 -42.5 -31s-34.167 -16.333 -54.5 -22s-42.5 -8.5 -66.5 -8.5z" />
    <glyph glyph-name="ae" unicode="&#xe6;" horiz-adv-x="954" 
d="M246 34c44 0 82.835 10.167 116.502 30.5s62.834 45.833 87.501 76.5c-6.66699 16.667 -11.834 34 -15.501 52s-5.83398 37 -6.50098 57c-21.333 5.33301 -45.5 10.333 -72.5 15s-56.833 7 -89.5 7c-52.667 0 -93 -10.833 -121 -32.5s-42 -50.5 -42 -86.5v-2
c0 -18.667 3.83301 -35.167 11.5 -49.5s18 -26.5 31 -36.5s28.167 -17.667 45.5 -23s35.666 -8 54.999 -8zM851.002 279c-2 26 -7.16699 50.833 -15.5 74.5s-20 44.667 -35 63s-33.5 33 -55.5 44s-47.667 16.5 -77 16.5c-25.333 0 -49 -5 -71 -15
s-41.167 -23.833 -57.5 -41.5s-29.833 -38.667 -40.5 -63s-17 -50.5 -19 -78.5h371zM243.002 -12c-23.333 0 -46.498 3.33203 -69.498 9.99902s-43.5 16.667 -61.5 30s-32.667 30 -44 50s-17 43.333 -17 70v2c0 26.667 5.33301 50.334 16 71.001s25.667 38 45 52
s42.333 24.667 69 32s56 11 88 11c33.333 0 62.166 -2 86.499 -6s48.833 -9.33301 73.5 -16v22c0 52 -14 91 -42 117s-67.667 39 -119 39c-30 0 -57.167 -3.83301 -81.5 -11.5s-48.166 -17.5 -71.499 -29.5l-18 43c28.667 13.333 56.334 24 83.001 32s57 12 91 12
c50.667 0 92.667 -10.667 126 -32s55.666 -53.333 66.999 -96c20 40 48 72 84 96s76.667 36 122 36c36 0 68.333 -6.83301 97 -20.5s53.167 -32.5 73.5 -56.5s36 -52.167 47 -84.5s16.5 -67.5 16.5 -105.5v-10.5c0 -2.33301 -0.333008 -5.5 -1 -9.5h-423
c2 -32 9 -60.333 21 -85s27 -45.667 45 -63s38.5 -30.5 61.5 -39.5s47.167 -13.5 72.5 -13.5c40 0 73.833 7.66699 101.5 23s52.167 34.333 73.5 57l34 -30c-26 -28 -55.5 -51 -88.5 -69s-73.833 -27 -122.5 -27c-42 0 -81.167 9.83301 -117.5 29.5
s-65.833 47.167 -88.5 82.5c-26.667 -30.667 -58.834 -57 -96.501 -79s-81.834 -33 -132.501 -33z" />
    <glyph glyph-name="ccedilla" unicode="&#xe7;" horiz-adv-x="571" 
d="M208 -122l76.001 111.999c-32.667 4 -62.834 13.833 -90.501 29.5s-51.5 35.334 -71.5 59.001s-35.667 50.334 -47 80.001s-17 61.167 -17 94.5v2c0 36 6.66699 70 20 102s31.666 60.333 54.999 85s50.833 44.167 82.5 58.5s65.834 21.5 102.501 21.5
c24 0 45.833 -2.5 65.5 -7.5s37.834 -11.833 54.501 -20.5s31.834 -18.667 45.501 -30s26.5 -23.333 38.5 -36l-35 -36c-22 22.667 -46.333 42.334 -73 59.001s-59 25 -97 25c-29.333 0 -56.5 -5.66699 -81.5 -17s-46.667 -26.833 -65 -46.5s-32.833 -42.834 -43.5 -69.501
s-16 -55.334 -16 -86.001v-2c0 -30.667 5.5 -59.5 16.5 -86.5s26 -50.5 45 -70.5s41.167 -35.667 66.5 -47s52.666 -17 81.999 -17c36 0 68.167 8.16699 96.5 24.5s53.166 36.5 74.499 60.5l34 -30c-25.333 -28 -53.333 -51.333 -84 -70s-68 -29 -112 -31l-67 -136z" />
    <glyph glyph-name="egrave" unicode="&#xe8;" horiz-adv-x="584" 
d="M179 698l61 30l88 -133h-42zM481 279c-2 26 -7.16699 50.833 -15.5 74.5s-20 44.667 -35 63s-33.5 33 -55.5 44s-47.667 16.5 -77 16.5c-25.333 0 -49 -5 -71 -15s-41.167 -23.833 -57.5 -41.5s-29.833 -38.667 -40.5 -63s-17 -50.5 -19 -78.5h371zM308 -12
c-33.333 0 -65.167 6.33301 -95.5 19s-57 30.667 -80 54s-41.167 51.333 -54.5 84s-20 69 -20 109v2c0 36.667 6.16699 71.167 18.5 103.5s29.333 60.5 51 84.5s47.167 43 76.5 57s61.333 21 96 21c36 0 68.333 -6.83301 97 -20.5s53.167 -32.5 73.5 -56.5
s36 -52.167 47 -84.5s16.5 -67.5 16.5 -105.5v-10.5c0 -2.33301 -0.333008 -5.5 -1 -9.5h-423c2 -32 9 -60.333 21 -85s27 -45.667 45 -63s38.5 -30.5 61.5 -39.5s47.167 -13.5 72.5 -13.5c40 0 73.833 7.66699 101.5 23s52.167 34.333 73.5 57l34 -30
c-26 -28 -55.5 -51 -88.5 -69s-73.833 -27 -122.5 -27z" />
    <glyph glyph-name="eacute" unicode="&#xe9;" horiz-adv-x="584" 
d="M345 728l61 -30l-107 -103h-42zM481 279c-2 26 -7.16699 50.833 -15.5 74.5s-20 44.667 -35 63s-33.5 33 -55.5 44s-47.667 16.5 -77 16.5c-25.333 0 -49 -5 -71 -15s-41.167 -23.833 -57.5 -41.5s-29.833 -38.667 -40.5 -63s-17 -50.5 -19 -78.5h371zM308 -12
c-33.333 0 -65.167 6.33301 -95.5 19s-57 30.667 -80 54s-41.167 51.333 -54.5 84s-20 69 -20 109v2c0 36.667 6.16699 71.167 18.5 103.5s29.333 60.5 51 84.5s47.167 43 76.5 57s61.333 21 96 21c36 0 68.333 -6.83301 97 -20.5s53.167 -32.5 73.5 -56.5
s36 -52.167 47 -84.5s16.5 -67.5 16.5 -105.5v-10.5c0 -2.33301 -0.333008 -5.5 -1 -9.5h-423c2 -32 9 -60.333 21 -85s27 -45.667 45 -63s38.5 -30.5 61.5 -39.5s47.167 -13.5 72.5 -13.5c40 0 73.833 7.66699 101.5 23s52.167 34.333 73.5 57l34 -30
c-26 -28 -55.5 -51 -88.5 -69s-73.833 -27 -122.5 -27z" />
    <glyph glyph-name="ecircumflex" unicode="&#xea;" horiz-adv-x="584" 
d="M277 717h40l100 -122h-47l-74 68l-74 -68h-45zM481 279c-2 26 -7.16699 50.833 -15.5 74.5s-20 44.667 -35 63s-33.5 33 -55.5 44s-47.667 16.5 -77 16.5c-25.333 0 -49 -5 -71 -15s-41.167 -23.833 -57.5 -41.5s-29.833 -38.667 -40.5 -63s-17 -50.5 -19 -78.5h371z
M308 -12c-33.333 0 -65.167 6.33301 -95.5 19s-57 30.667 -80 54s-41.167 51.333 -54.5 84s-20 69 -20 109v2c0 36.667 6.16699 71.167 18.5 103.5s29.333 60.5 51 84.5s47.167 43 76.5 57s61.333 21 96 21c36 0 68.333 -6.83301 97 -20.5s53.167 -32.5 73.5 -56.5
s36 -52.167 47 -84.5s16.5 -67.5 16.5 -105.5v-10.5c0 -2.33301 -0.333008 -5.5 -1 -9.5h-423c2 -32 9 -60.333 21 -85s27 -45.667 45 -63s38.5 -30.5 61.5 -39.5s47.167 -13.5 72.5 -13.5c40 0 73.833 7.66699 101.5 23s52.167 34.333 73.5 57l34 -30
c-26 -28 -55.5 -51 -88.5 -69s-73.833 -27 -122.5 -27z" />
    <glyph glyph-name="edieresis" unicode="&#xeb;" horiz-adv-x="584" 
d="M181 675h69v-80h-69v80zM344 675h69v-80h-69v80zM481 279c-2 26 -7.16699 50.833 -15.5 74.5s-20 44.667 -35 63s-33.5 33 -55.5 44s-47.667 16.5 -77 16.5c-25.333 0 -49 -5 -71 -15s-41.167 -23.833 -57.5 -41.5s-29.833 -38.667 -40.5 -63s-17 -50.5 -19 -78.5h371z
M308 -12c-33.333 0 -65.167 6.33301 -95.5 19s-57 30.667 -80 54s-41.167 51.333 -54.5 84s-20 69 -20 109v2c0 36.667 6.16699 71.167 18.5 103.5s29.333 60.5 51 84.5s47.167 43 76.5 57s61.333 21 96 21c36 0 68.333 -6.83301 97 -20.5s53.167 -32.5 73.5 -56.5
s36 -52.167 47 -84.5s16.5 -67.5 16.5 -105.5v-10.5c0 -2.33301 -0.333008 -5.5 -1 -9.5h-423c2 -32 9 -60.333 21 -85s27 -45.667 45 -63s38.5 -30.5 61.5 -39.5s47.167 -13.5 72.5 -13.5c40 0 73.833 7.66699 101.5 23s52.167 34.333 73.5 57l34 -30
c-26 -28 -55.5 -51 -88.5 -69s-73.833 -27 -122.5 -27z" />
    <glyph glyph-name="igrave" unicode="&#xec;" horiz-adv-x="249" 
d="M-5 698l61 30l88 -133h-42zM100 510h49v-510h-49v510z" />
    <glyph glyph-name="iacute" unicode="&#xed;" horiz-adv-x="249" 
d="M193 728l61 -30l-107 -103h-42zM100 510h49v-510h-49v510z" />
    <glyph glyph-name="icircumflex" unicode="&#xee;" horiz-adv-x="249" 
d="M104 717h40l100 -122h-47l-74 68l-74 -68h-45zM100 510h49v-510h-49v510z" />
    <glyph glyph-name="idieresis" unicode="&#xef;" horiz-adv-x="249" 
d="M8 675h69v-80h-69v80zM171 675h69v-80h-69v80zM100 510h49v-510h-49v510z" />
    <glyph glyph-name="eth" unicode="&#xf0;" horiz-adv-x="628" 
d="M314 34c30 0 57.332 5.66797 81.999 17.001s45.834 26.5 63.501 45.5s31.334 41.167 41.001 66.5s14.5 51.666 14.5 78.999v2c0 26.667 -5.33301 52 -16 76s-25.5 45 -44.5 63s-41.333 32.333 -67 43s-53.5 16 -83.5 16s-56.833 -5.16699 -80.5 -15.5
s-43.834 -24.5 -60.501 -42.5s-29.5 -39.167 -38.5 -63.5s-13.5 -50.5 -13.5 -78.5v-2c0 -26 5 -51.5 15 -76.5s24 -47 42 -66s39.5 -34.333 64.5 -46s52.167 -17.5 81.5 -17.5zM308.999 -11.999c-36 0 -69.334 6.83105 -100.001 20.498s-57.167 32.167 -79.5 55.5
s-39.833 50.5 -52.5 81.5s-19 63.5 -19 97.5v2c0 36 6.66699 68.833 20 98.5s31 55 53 76s47.5 37.333 76.5 49s59.167 17.5 90.5 17.5c40.667 0 74.834 -6.16699 102.501 -18.5s52.5 -27.166 74.5 -44.499l-147 208l-133 -68l-29 36l137 67l-45 64h63l27 -41l98 50l28 -36
l-102 -50l109 -161c25.333 -37.333 46.166 -75.166 62.499 -113.499s24.5 -81.5 24.5 -129.5v-2c0 -34 -6.16699 -66.667 -18.5 -98s-29.666 -59 -51.999 -83s-49.5 -43 -81.5 -57s-67.667 -21 -107 -21z" />
    <glyph glyph-name="ntilde" unicode="&#xf1;" horiz-adv-x="613" 
d="M163 595c9.33301 36 20.666 60.5 33.999 73.5s30 19.5 50 19.5c9.33301 0 19.666 -2.16699 30.999 -6.5s22.833 -9 34.5 -14l33.5 -14c10.667 -4.33301 20.334 -6.5 29.001 -6.5c12 0 21.5 3.5 28.5 10.5s14.167 20.167 21.5 39.5l34 -9
c-9.33301 -36 -20.666 -60.5 -33.999 -73.5s-30 -19.5 -50 -19.5c-9.33301 0 -19.666 2.16699 -30.999 6.5s-22.833 9 -34.5 14l-33.5 14c-10.667 4.33301 -20.334 6.5 -29.001 6.5c-12 0 -21.5 -3.5 -28.5 -10.5s-14.167 -20.167 -21.5 -39.5zM93 510l49 0.000976562v-95
c17.333 30 40.666 55.333 69.999 76s67.333 31 114 31c32 0 60.667 -5.16699 86 -15.5s46.833 -24.833 64.5 -43.5s31 -40.834 40 -66.501s13.5 -53.834 13.5 -84.501v-312h-49v303c0 52.667 -14 94.834 -42 126.501s-68 47.5 -120 47.5
c-25.333 0 -48.666 -4.5 -69.999 -13.5s-40 -21.5 -56 -37.5s-28.5 -35.167 -37.5 -57.5s-13.5 -46.833 -13.5 -73.5v-295h-49v510z" />
    <glyph glyph-name="ograve" unicode="&#xf2;" horiz-adv-x="640" 
d="M191 698l61 30l88 -133h-42zM321 34c30 0 57.833 5.83301 83.5 17.5s47.667 27.334 66 47.001s32.666 42.834 42.999 69.501s15.5 55 15.5 85v2c0 30.667 -5.33301 59.5 -16 86.5s-25.5 50.5 -44.5 70.5s-41.333 35.667 -67 47s-53.167 17 -82.5 17
c-30 0 -57.833 -5.83301 -83.5 -17.5s-47.667 -27.334 -66 -47.001s-32.666 -42.834 -42.999 -69.501s-15.5 -55 -15.5 -85v-2c0 -30.667 5.33301 -59.5 16 -86.5s25.5 -50.5 44.5 -70.5s41.333 -35.667 67 -47s53.167 -17 82.5 -17zM319 -12
c-38 0 -72.833 7.16699 -104.5 21.5s-59.167 33.5 -82.5 57.5s-41.5 52 -54.5 84s-19.5 66 -19.5 102v2c0 36 6.5 70 19.5 102s31.333 60.333 55 85s51.5 44.167 83.5 58.5s67 21.5 105 21.5s72.833 -7.16699 104.5 -21.5s59.167 -33.5 82.5 -57.5s41.5 -52 54.5 -84
s19.5 -66 19.5 -102v-2c0 -36 -6.5 -70 -19.5 -102s-31.333 -60.333 -55 -85s-51.5 -44.167 -83.5 -58.5s-67 -21.5 -105 -21.5z" />
    <glyph glyph-name="oacute" unicode="&#xf3;" horiz-adv-x="640" 
d="M388 728l61 -30l-107 -103h-42zM321 34c30 0 57.833 5.83301 83.5 17.5s47.667 27.334 66 47.001s32.666 42.834 42.999 69.501s15.5 55 15.5 85v2c0 30.667 -5.33301 59.5 -16 86.5s-25.5 50.5 -44.5 70.5s-41.333 35.667 -67 47s-53.167 17 -82.5 17
c-30 0 -57.833 -5.83301 -83.5 -17.5s-47.667 -27.334 -66 -47.001s-32.666 -42.834 -42.999 -69.501s-15.5 -55 -15.5 -85v-2c0 -30.667 5.33301 -59.5 16 -86.5s25.5 -50.5 44.5 -70.5s41.333 -35.667 67 -47s53.167 -17 82.5 -17zM319 -12
c-38 0 -72.833 7.16699 -104.5 21.5s-59.167 33.5 -82.5 57.5s-41.5 52 -54.5 84s-19.5 66 -19.5 102v2c0 36 6.5 70 19.5 102s31.333 60.333 55 85s51.5 44.167 83.5 58.5s67 21.5 105 21.5s72.833 -7.16699 104.5 -21.5s59.167 -33.5 82.5 -57.5s41.5 -52 54.5 -84
s19.5 -66 19.5 -102v-2c0 -36 -6.5 -70 -19.5 -102s-31.333 -60.333 -55 -85s-51.5 -44.167 -83.5 -58.5s-67 -21.5 -105 -21.5z" />
    <glyph glyph-name="ocircumflex" unicode="&#xf4;" horiz-adv-x="640" 
d="M300 717h40l100 -122h-47l-74 68l-74 -68h-45zM321 34c30 0 57.833 5.83301 83.5 17.5s47.667 27.334 66 47.001s32.666 42.834 42.999 69.501s15.5 55 15.5 85v2c0 30.667 -5.33301 59.5 -16 86.5s-25.5 50.5 -44.5 70.5s-41.333 35.667 -67 47s-53.167 17 -82.5 17
c-30 0 -57.833 -5.83301 -83.5 -17.5s-47.667 -27.334 -66 -47.001s-32.666 -42.834 -42.999 -69.501s-15.5 -55 -15.5 -85v-2c0 -30.667 5.33301 -59.5 16 -86.5s25.5 -50.5 44.5 -70.5s41.333 -35.667 67 -47s53.167 -17 82.5 -17zM319 -12
c-38 0 -72.833 7.16699 -104.5 21.5s-59.167 33.5 -82.5 57.5s-41.5 52 -54.5 84s-19.5 66 -19.5 102v2c0 36 6.5 70 19.5 102s31.333 60.333 55 85s51.5 44.167 83.5 58.5s67 21.5 105 21.5s72.833 -7.16699 104.5 -21.5s59.167 -33.5 82.5 -57.5s41.5 -52 54.5 -84
s19.5 -66 19.5 -102v-2c0 -36 -6.5 -70 -19.5 -102s-31.333 -60.333 -55 -85s-51.5 -44.167 -83.5 -58.5s-67 -21.5 -105 -21.5z" />
    <glyph glyph-name="otilde" unicode="&#xf5;" horiz-adv-x="640" 
d="M172 595c9.33301 36 20.666 60.5 33.999 73.5s30 19.5 50 19.5c9.33301 0 19.666 -2.16699 30.999 -6.5s22.833 -9 34.5 -14l33.5 -14c10.667 -4.33301 20.334 -6.5 29.001 -6.5c12 0 21.5 3.5 28.5 10.5s14.167 20.167 21.5 39.5l34 -9
c-9.33301 -36 -20.666 -60.5 -33.999 -73.5s-30 -19.5 -50 -19.5c-9.33301 0 -19.666 2.16699 -30.999 6.5s-22.833 9 -34.5 14l-33.5 14c-10.667 4.33301 -20.334 6.5 -29.001 6.5c-12 0 -21.5 -3.5 -28.5 -10.5s-14.167 -20.167 -21.5 -39.5zM321 34
c30 0 57.833 5.83301 83.5 17.5s47.667 27.334 66 47.001s32.666 42.834 42.999 69.501s15.5 55 15.5 85v2c0 30.667 -5.33301 59.5 -16 86.5s-25.5 50.5 -44.5 70.5s-41.333 35.667 -67 47s-53.167 17 -82.5 17c-30 0 -57.833 -5.83301 -83.5 -17.5
s-47.667 -27.334 -66 -47.001s-32.666 -42.834 -42.999 -69.501s-15.5 -55 -15.5 -85v-2c0 -30.667 5.33301 -59.5 16 -86.5s25.5 -50.5 44.5 -70.5s41.333 -35.667 67 -47s53.167 -17 82.5 -17zM319 -12c-38 0 -72.833 7.16699 -104.5 21.5s-59.167 33.5 -82.5 57.5
s-41.5 52 -54.5 84s-19.5 66 -19.5 102v2c0 36 6.5 70 19.5 102s31.333 60.333 55 85s51.5 44.167 83.5 58.5s67 21.5 105 21.5s72.833 -7.16699 104.5 -21.5s59.167 -33.5 82.5 -57.5s41.5 -52 54.5 -84s19.5 -66 19.5 -102v-2c0 -36 -6.5 -70 -19.5 -102
s-31.333 -60.333 -55 -85s-51.5 -44.167 -83.5 -58.5s-67 -21.5 -105 -21.5z" />
    <glyph glyph-name="odieresis" unicode="&#xf6;" horiz-adv-x="640" 
d="M204 675h69v-80h-69v80zM367 675h69v-80h-69v80zM321 34c30 0 57.833 5.83301 83.5 17.5s47.667 27.334 66 47.001s32.666 42.834 42.999 69.501s15.5 55 15.5 85v2c0 30.667 -5.33301 59.5 -16 86.5s-25.5 50.5 -44.5 70.5s-41.333 35.667 -67 47s-53.167 17 -82.5 17
c-30 0 -57.833 -5.83301 -83.5 -17.5s-47.667 -27.334 -66 -47.001s-32.666 -42.834 -42.999 -69.501s-15.5 -55 -15.5 -85v-2c0 -30.667 5.33301 -59.5 16 -86.5s25.5 -50.5 44.5 -70.5s41.333 -35.667 67 -47s53.167 -17 82.5 -17zM319 -12
c-38 0 -72.833 7.16699 -104.5 21.5s-59.167 33.5 -82.5 57.5s-41.5 52 -54.5 84s-19.5 66 -19.5 102v2c0 36 6.5 70 19.5 102s31.333 60.333 55 85s51.5 44.167 83.5 58.5s67 21.5 105 21.5s72.833 -7.16699 104.5 -21.5s59.167 -33.5 82.5 -57.5s41.5 -52 54.5 -84
s19.5 -66 19.5 -102v-2c0 -36 -6.5 -70 -19.5 -102s-31.333 -60.333 -55 -85s-51.5 -44.167 -83.5 -58.5s-67 -21.5 -105 -21.5z" />
    <glyph glyph-name="oslash" unicode="&#xf8;" horiz-adv-x="640" 
d="M321 34c30 0 57.834 5.83105 83.501 17.498s47.667 27.334 66 47.001s32.666 42.834 42.999 69.501s15.5 55 15.5 85v2c0 27.333 -4.16699 52.833 -12.5 76.5s-19.833 45.167 -34.5 64.5l-298 -310c18.667 -16.667 39.5 -29.5 62.5 -38.5s47.833 -13.5 74.5 -13.5z
M456.001 422.998c-18.667 16.667 -39.501 29.6689 -62.501 39.002s-47.833 14 -74.5 14c-30 0 -57.833 -5.83301 -83.5 -17.5s-47.667 -27.334 -66 -47.001s-32.666 -42.834 -42.999 -69.501s-15.5 -55 -15.5 -85v-2c0 -27.333 4 -52.833 12 -76.5s19.667 -45.167 35 -64.5z
M319 -12c-32.667 0 -63.167 5.33398 -91.5 16.001s-53.5 25.334 -75.5 44.001l-52 -53h-57l79 82c-20 23.333 -35.667 50.166 -47 80.499s-17 62.166 -17 95.499v2c0 36 6.5 70 19.5 102s31.333 60.333 55 85s51.5 44.167 83.5 58.5s67 21.5 105 21.5
c32.667 0 63.167 -5.33301 91.5 -16s53.5 -25.667 75.5 -45l52 56h57l-80 -84c20.667 -23.333 36.667 -50 48 -80s17 -62 17 -96v-2c0 -36 -6.5 -70 -19.5 -102s-31.333 -60.333 -55 -85s-51.5 -44.167 -83.5 -58.5s-67 -21.5 -105 -21.5z" />
    <glyph glyph-name="ugrave" unicode="&#xf9;" horiz-adv-x="613" 
d="M182 693l61 30l88 -133h-42zM287 -12c-32 0 -60.6689 5.16602 -86.002 15.499s-46.833 24.833 -64.5 43.5s-31 40.834 -40 66.501s-13.5 53.834 -13.5 84.501v312h49v-303c0 -52.667 14 -94.834 42 -126.501s68 -47.5 120 -47.5c24.667 0 47.834 4.5 69.501 13.5
s40.5 21.5 56.5 37.5s28.5 35.167 37.5 57.5s13.5 46.833 13.5 73.5v295h49v-510h-49v95c-17.333 -30 -40.666 -55.333 -69.999 -76s-67.333 -31 -114 -31z" />
    <glyph glyph-name="uacute" unicode="&#xfa;" horiz-adv-x="613" 
d="M365 723l61 -30l-107 -103h-42zM287 -12c-32 0 -60.6689 5.16602 -86.002 15.499s-46.833 24.833 -64.5 43.5s-31 40.834 -40 66.501s-13.5 53.834 -13.5 84.501v312h49v-303c0 -52.667 14 -94.834 42 -126.501s68 -47.5 120 -47.5c24.667 0 47.834 4.5 69.501 13.5
s40.5 21.5 56.5 37.5s28.5 35.167 37.5 57.5s13.5 46.833 13.5 73.5v295h49v-510h-49v95c-17.333 -30 -40.666 -55.333 -69.999 -76s-67.333 -31 -114 -31z" />
    <glyph glyph-name="ucircumflex" unicode="&#xfb;" horiz-adv-x="613" 
d="M288 717h40l100 -122h-47l-74 68l-74 -68h-45zM287 -12c-32 0 -60.6689 5.16602 -86.002 15.499s-46.833 24.833 -64.5 43.5s-31 40.834 -40 66.501s-13.5 53.834 -13.5 84.501v312h49v-303c0 -52.667 14 -94.834 42 -126.501s68 -47.5 120 -47.5
c24.667 0 47.834 4.5 69.501 13.5s40.5 21.5 56.5 37.5s28.5 35.167 37.5 57.5s13.5 46.833 13.5 73.5v295h49v-510h-49v95c-17.333 -30 -40.666 -55.333 -69.999 -76s-67.333 -31 -114 -31z" />
    <glyph glyph-name="udieresis" unicode="&#xfc;" horiz-adv-x="613" 
d="M192 675h69v-80h-69v80zM355 675h69v-80h-69v80zM287 -12c-32 0 -60.6689 5.16602 -86.002 15.499s-46.833 24.833 -64.5 43.5s-31 40.834 -40 66.501s-13.5 53.834 -13.5 84.501v312h49v-303c0 -52.667 14 -94.834 42 -126.501s68 -47.5 120 -47.5
c24.667 0 47.834 4.5 69.501 13.5s40.5 21.5 56.5 37.5s28.5 35.167 37.5 57.5s13.5 46.833 13.5 73.5v295h49v-510h-49v95c-17.333 -30 -40.666 -55.333 -69.999 -76s-67.333 -31 -114 -31z" />
    <glyph glyph-name="yacute" unicode="&#xfd;" horiz-adv-x="588" 
d="M369 723l61 -30l-107 -103h-42zM155 -163c-19.333 0 -36.666 1.83301 -51.999 5.5s-31.666 9.16699 -48.999 16.5l17 43c13.333 -6.66699 26.333 -11.5 39 -14.5s28.667 -4.5 48 -4.5c13.333 0 25.666 2 36.999 6s22 10.833 32 20.5s19.667 22.167 29 37.5
s18.666 34 27.999 56l-245 507h57l212 -456l184 456h54l-221 -528c-22.667 -53.333 -47.5 -90.833 -74.5 -112.5s-58.833 -32.5 -95.5 -32.5z" />
    <glyph glyph-name="thorn" unicode="&#xfe;" horiz-adv-x="660" 
d="M347 35c28 0 54.166 5.00195 78.499 15.002s45.5 24.333 63.5 43s32.167 41.5 42.5 68.5s15.5 57.5 15.5 91.5v2c0 33.333 -5.33301 63.666 -16 90.999s-25.167 50.5 -43.5 69.5s-39.666 33.667 -63.999 44s-49.833 15.5 -76.5 15.5s-52.5 -5.33301 -77.5 -16
s-47.167 -25.667 -66.5 -45s-34.833 -42.333 -46.5 -69s-17.5 -56.334 -17.5 -89.001v-2c0 -32.667 5.83301 -62.5 17.5 -89.5s27.167 -50 46.5 -69s41.5 -33.833 66.5 -44.5s50.833 -16 77.5 -16zM92.999 730.002l49 0.000976562v-334c10.667 16.667 23 32.667 37 48
s29.5 28.666 46.5 39.999s36 20.5 57 27.5s44.167 10.5 69.5 10.5c30.667 0 60.834 -6 90.501 -18s56.167 -29.333 79.5 -52s42.166 -50.5 56.499 -83.5s21.5 -70.167 21.5 -111.5v-2c0 -41.333 -7.16699 -78.5 -21.5 -111.5s-33.166 -61 -56.499 -84
s-49.833 -40.667 -79.5 -53s-59.834 -18.5 -90.501 -18.5c-25.333 0 -48.666 3.33301 -69.999 10s-40.5 15.667 -57.5 27s-32.333 24.333 -46 39s-25.834 30 -36.501 46v-270h-49v890z" />
    <glyph glyph-name="ydieresis" unicode="&#xff;" horiz-adv-x="588" 
d="M178 675h69v-80h-69v80zM341 675h69v-80h-69v80zM155 -163c-19.333 0 -36.666 1.83301 -51.999 5.5s-31.666 9.16699 -48.999 16.5l17 43c13.333 -6.66699 26.333 -11.5 39 -14.5s28.667 -4.5 48 -4.5c13.333 0 25.666 2 36.999 6s22 10.833 32 20.5
s19.667 22.167 29 37.5s18.666 34 27.999 56l-245 507h57l212 -456l184 456h54l-221 -528c-22.667 -53.333 -47.5 -90.833 -74.5 -112.5s-58.833 -32.5 -95.5 -32.5z" />
    <glyph glyph-name="dotlessi" unicode="&#x131;" horiz-adv-x="249" 
d="M100 510h49v-510h-49v510z" />
    <glyph glyph-name="Lslash" unicode="&#x141;" horiz-adv-x="649" 
d="M134 316l-75 -23v48l75 23v336h51v-320l225 69v-48l-225 -69v-284h412v-48h-463v316z" />
    <glyph glyph-name="lslash" unicode="&#x142;" horiz-adv-x="309" 
d="M130 336l-76 -24v50l76 23v345h49v-330l76 24v-50l-76 -24v-350h-49v336z" />
    <glyph glyph-name="OE" unicode="&#x152;" horiz-adv-x="1152" 
d="M601 48v604h-156c-48.667 0 -92.667 -7.83301 -132 -23.5s-72.666 -37 -99.999 -64s-48.5 -58.667 -63.5 -95s-22.5 -75.5 -22.5 -117.5v-2c0 -41.333 7.5 -80.333 22.5 -117s36.167 -68.667 63.5 -96s60.666 -49 99.999 -65s83.333 -24 132 -24h156zM445 0
c-55.333 0 -105.666 8.83496 -150.999 26.502s-84.5 42.167 -117.5 73.5s-58.5 68.166 -76.5 110.499s-27 88.166 -27 137.499v2c0 49.333 9 95.333 27 138s43.5 79.667 76.5 111s72.167 56 117.5 74s95.666 27 150.999 27h639v-48h-431v-275h386v-48h-386v-281h436v-48
h-644z" />
    <glyph glyph-name="oe" unicode="&#x153;" horiz-adv-x="1055" 
d="M321 34c30 0 57.833 5.83301 83.5 17.5s47.667 27.334 66 47.001s32.666 42.834 42.999 69.501s15.5 55 15.5 85v2c0 30.667 -5.33301 59.5 -16 86.5s-25.5 50.5 -44.5 70.5s-41.333 35.667 -67 47s-53.167 17 -82.5 17c-30 0 -57.833 -5.83301 -83.5 -17.5
s-47.667 -27.334 -66 -47.001s-32.666 -42.834 -42.999 -69.501s-15.5 -55 -15.5 -85v-2c0 -30.667 5.33301 -59.5 16 -86.5s25.5 -50.5 44.5 -70.5s41.333 -35.667 67 -47s53.167 -17 82.5 -17zM952 279c-2 26 -7.16699 50.833 -15.5 74.5s-20 44.667 -35 63
s-33.5 33 -55.5 44s-47.667 16.5 -77 16.5c-25.333 0 -49 -5 -71 -15s-41.167 -23.833 -57.5 -41.5s-29.833 -38.667 -40.5 -63s-17 -50.5 -19 -78.5h371zM318 -12c-37.333 0 -71.835 7.16699 -103.502 21.5s-59.167 33.5 -82.5 57.5s-41.5 52 -54.5 84s-19.5 66 -19.5 102
v2c0 36 6.66699 70 20 102s31.666 60.333 54.999 85s51 44.167 83 58.5s66.667 21.5 104 21.5c26.667 0 52.167 -3.83301 76.5 -11.5s46.5 -18.5 66.5 -32.5s37.667 -30.5 53 -49.5s28 -39.833 38 -62.5c18.667 46.667 47.167 84.334 85.5 113.001s82.5 43 132.5 43
c35.333 0 67.333 -6.83301 96 -20.5s53.167 -32.5 73.5 -56.5s36 -52.167 47 -84.5s16.5 -67.5 16.5 -105.5v-10.5c0 -2.33301 -0.333008 -5.5 -1 -9.5h-423c2 -32 9 -60.333 21 -85s27 -45.667 45 -63s38.5 -30.5 61.5 -39.5s47.167 -13.5 72.5 -13.5
c40 0 73.833 7.66699 101.5 23s52.167 34.333 73.5 57l34 -30c-26 -28 -55.333 -51 -88 -69s-73 -27 -121 -27c-24.667 0 -48.5 3.66699 -71.5 11s-44.5 17.666 -64.5 30.999s-37.667 29.833 -53 49.5s-28 41.5 -38 65.5c-10 -22.667 -22.667 -43.667 -38 -63
s-33.166 -36 -53.499 -50s-42.666 -24.833 -66.999 -32.5s-50.166 -11.5 -77.499 -11.5z" />
    <glyph glyph-name="Scaron" unicode="&#x160;" horiz-adv-x="640" 
d="M207 887h47l74 -68l74 68h45l-100 -122h-40zM341 -10c-56 0 -106.5 9.32715 -151.5 27.9941s-88.5 46.667 -130.5 84l34 39c19.333 -18 38.5 -33.5 57.5 -46.5s38.5 -23.667 58.5 -32s41 -14.666 63 -18.999s46 -6.5 72 -6.5s50 3.5 72 10.5s40.667 16.667 56 29
s27.333 27 36 44s13 35.5 13 55.5v2c0 18.667 -2.83301 35.334 -8.5 50.001s-16 28 -31 40s-35.167 22.833 -60.5 32.5s-58 18.5 -98 26.5c-42 8.66699 -78 18.834 -108 30.501s-54.5 25.334 -73.5 41.001s-32.833 33.834 -41.5 54.501s-13 44.334 -13 71.001v2
c0 26 5.66699 50.167 17 72.5s27 41.833 47 58.5s43.667 29.667 71 39s57.333 14 90 14c50.667 0 94.5 -7 131.5 -21s73.167 -35.333 108.5 -64l-33 -41c-33.333 28.667 -66.833 49 -100.5 61s-69.834 18 -108.501 18c-26 0 -49.5 -3.5 -70.5 -10.5s-39 -16.5 -54 -28.5
s-26.5 -26 -34.5 -42s-12 -33 -12 -51v-2c0 -18.667 2.83301 -35.5 8.5 -50.5s16 -28.667 31 -41s35.833 -23.5 62.5 -33.5s60.667 -19.333 102 -28c81.333 -16.667 140 -40.167 176 -70.5s54 -71.166 54 -122.499v-2c0 -28 -5.83301 -53.833 -17.5 -77.5
s-27.667 -43.834 -48 -60.501s-44.666 -29.667 -72.999 -39s-59.5 -14 -93.5 -14z" />
    <glyph glyph-name="scaron" unicode="&#x161;" horiz-adv-x="497" 
d="M131 717h47l74 -68l74 68h45l-100 -122h-40zM258 -10c-37.333 0 -74.6709 6.83398 -112.004 20.501s-69.666 31.5 -96.999 53.5l29 39c28 -21.333 57.333 -37.833 88 -49.5s62.334 -17.5 95.001 -17.5c34.667 0 63.834 8.66699 87.501 26s35.5 41 35.5 71v2
c0 14.667 -3.66699 27.334 -11 38.001s-17.333 20 -30 28s-27 14.667 -43 20s-33 10.666 -51 15.999l-62.5 19c-21 6.66699 -39.833 15.167 -56.5 25.5s-30.167 23.166 -40.5 38.499s-15.5 34.333 -15.5 57v2c0 20.667 4.16699 39.5 12.5 56.5s19.833 31.833 34.5 44.5
s32.334 22.5 53.001 29.5s43.334 10.5 68.001 10.5c30.667 0 62.167 -5 94.5 -15s61.166 -23.667 86.499 -41l-26 -41c-23.333 15.333 -48.5 27.666 -75.5 36.999s-54.167 14 -81.5 14c-35.333 0 -63.5 -8.5 -84.5 -25.5s-31.5 -38.167 -31.5 -63.5v-2
c0 -14 4 -26.167 12 -36.5s18.5 -19.166 31.5 -26.499s28.167 -13.833 45.5 -19.5s35 -11.167 53 -16.5c20.667 -6 41 -12.5 61 -19.5s38 -16 54 -27s28.833 -24.167 38.5 -39.5s14.5 -34.333 14.5 -57v-2c0 -22.667 -4.5 -43.167 -13.5 -61.5s-21.5 -34 -37.5 -47
s-34.667 -23 -56 -30s-44.333 -10.5 -69 -10.5z" />
    <glyph glyph-name="Ydieresis" unicode="&#x178;" horiz-adv-x="716" 
d="M242 840h69v-80h-69v80zM405 840h69v-80h-69v80zM332 277l-300 423h65l262 -376l263 376h62l-300 -422v-278h-52v277z" />
    <glyph glyph-name="Zcaron" unicode="&#x17d;" horiz-adv-x="688" 
d="M229 887h47l74 -68l74 68h45l-100 -122h-40zM68 29l479 624h-462v47h536v-29l-479 -624h479v-47h-553v29z" />
    <glyph glyph-name="zcaron" unicode="&#x17e;" horiz-adv-x="554" 
d="M166 717h47l74 -68l74 68h45l-100 -122h-40zM58 28l368 438h-354v44h427v-28l-368 -438h368v-44h-441v28z" />
    <glyph glyph-name="florin" unicode="&#x192;" horiz-adv-x="506" 
d="M90 -5c-10.667 0 -19.8311 0.333008 -27.498 1s-14.834 1.66699 -21.501 3v44c13.333 -2.66699 28.666 -4 45.999 -4c44.667 0 72 27.333 82 82l49 263h-109v45h117l26 136c9.33301 50 25.5 85.833 48.5 107.5s54.5 32.5 94.5 32.5c16 0 29.5 -0.833008 40.5 -2.5
s22.5 -4.16699 34.5 -7.5v-44c-12 3.33301 -24 5.83301 -36 7.5s-23.333 2.5 -34 2.5c-28 0 -49.167 -7.5 -63.5 -22.5s-24.833 -40.5 -31.5 -76.5l-25 -133h155v-45h-163l-50 -266c-8 -42 -22.5 -73 -43.5 -93s-50.5 -30 -88.5 -30z" />
    <glyph glyph-name="circumflex" unicode="&#x2c6;" 
d="M230 717h40l100 -122h-47l-74 68l-74 -68h-45z" />
    <glyph glyph-name="caron" unicode="&#x2c7;" 
d="M130 717h47l74 -68l74 68h45l-100 -122h-40z" />
    <glyph glyph-name="breve" unicode="&#x2d8;" 
d="M250 593c-37.333 0 -68.168 10.833 -92.501 32.5s-37.833 52.167 -40.5 91.5h39c6 -22.667 16.667 -40.5 32 -53.5s36 -19.5 62 -19.5s46.667 6.5 62 19.5s26 30.833 32 53.5h39c-2.66699 -39.333 -16.167 -69.833 -40.5 -91.5s-55.166 -32.5 -92.499 -32.5z" />
    <glyph glyph-name="dotaccent" unicode="&#x2d9;" 
d="M214 676h72v-81h-72v81z" />
    <glyph glyph-name="ring" unicode="&#x2da;" 
d="M250 625c16.667 0 31.167 6 43.5 18s18.5 26.333 18.5 43v2c0 16.667 -6 31 -18 43s-26.667 18 -44 18s-32 -6 -44 -18s-18 -26.333 -18 -43v-2c0 -16.667 6.16699 -31 18.5 -43s26.833 -18 43.5 -18zM250 593c-13.333 0 -25.833 2.5 -37.5 7.5s-22 11.667 -31 20
s-16.167 18.166 -21.5 29.499s-8 23.333 -8 36v2c0 12.667 2.66699 24.667 8 36s12.5 21.166 21.5 29.499s19.333 15 31 20s24.167 7.5 37.5 7.5c12.667 0 25 -2.5 37 -7.5s22.5 -11.667 31.5 -20s16.167 -18.166 21.5 -29.499s8 -23.333 8 -36v-2
c0 -12.667 -2.66699 -24.667 -8 -36s-12.5 -21.166 -21.5 -29.499s-19.5 -15 -31.5 -20s-24.333 -7.5 -37 -7.5z" />
    <glyph glyph-name="ogonek" unicode="&#x2db;" 
d="M356 -164c-57.333 -2 -99.833 7.50098 -127.5 28.501s-41.5 47.167 -41.5 78.5c0 12.667 1.33301 24.667 4 36s6 21.666 10 30.999h43c-4 -18 -6 -36.667 -6 -56c0 -54 39.333 -83 118 -87v-31z" />
    <glyph glyph-name="tilde" unicode="&#x2dc;" 
d="M102 595c9.33301 36 20.666 60.5 33.999 73.5s30 19.5 50 19.5c9.33301 0 19.666 -2.16699 30.999 -6.5s22.833 -9 34.5 -14l33.5 -14c10.667 -4.33301 20.334 -6.5 29.001 -6.5c12 0 21.5 3.5 28.5 10.5s14.167 20.167 21.5 39.5l34 -9
c-9.33301 -36 -20.666 -60.5 -33.999 -73.5s-30 -19.5 -50 -19.5c-9.33301 0 -19.666 2.16699 -30.999 6.5s-22.833 9 -34.5 14l-33.5 14c-10.667 4.33301 -20.334 6.5 -29.001 6.5c-12 0 -21.5 -3.5 -28.5 -10.5s-14.167 -20.167 -21.5 -39.5z" />
    <glyph glyph-name="hungarumlaut" unicode="&#x2dd;" 
d="M191 728l55 -29l-101 -104h-43zM343 728l55 -29l-101 -104h-43z" />
    <glyph glyph-name="Omega" unicode="&#x3a9;" horiz-adv-x="724" 
d="M123 465h-74.002v45h74v50c0 58.667 15 103 45 133c26.667 26.667 62.334 40 107.001 40c15.333 0 29 -1 41 -3s23.667 -5 35 -9v-46c-14.667 4.66699 -27.667 8 -39 10s-23.666 3 -36.999 3c-68.667 0 -103 -43 -103 -129v-49h178v-45h-178v-465h-49v465zM484.998 465
h-74.002v45h74v50c0 58.667 15 103 45 133c26.667 26.667 62.334 40 107.001 40c15.333 0 29 -1 41 -3s23.667 -5 35 -9v-46c-14.667 4.66699 -27.667 8 -39 10s-23.666 3 -36.999 3c-68.667 0 -103 -43 -103 -129v-49h178v-45h-178v-465h-49v465z" />
    <glyph glyph-name="Omega" unicode="&#x2126;" horiz-adv-x="724" 
d="M123 465h-74.002v45h74v50c0 58.667 15 103 45 133c26.667 26.667 62.334 40 107.001 40c15.333 0 29 -1 41 -3s23.667 -5 35 -9v-46c-14.667 4.66699 -27.667 8 -39 10s-23.666 3 -36.999 3c-68.667 0 -103 -43 -103 -129v-49h178v-45h-178v-465h-49v465zM484.998 465
h-74.002v45h74v50c0 58.667 15 103 45 133c26.667 26.667 62.334 40 107.001 40c15.333 0 29 -1 41 -3s23.667 -5 35 -9v-46c-14.667 4.66699 -27.667 8 -39 10s-23.666 3 -36.999 3c-68.667 0 -103 -43 -103 -129v-49h178v-45h-178v-465h-49v465z" />
    <glyph glyph-name="pi" unicode="&#x3c0;" horiz-adv-x="830" 
d="M431 344c32 0 57.333 6.66797 76 20.001s28 32.666 28 57.999v2c0 26 -9 45.167 -27 57.5s-42.667 18.5 -74 18.5h-94v-156h91zM296 541.001h141c43.333 0 78 -9.83301 104 -29.5s39 -48.167 39 -85.5v-2c0 -20.667 -4.16699 -38.5 -12.5 -53.5s-19.333 -27.5 -33 -37.5
s-29.5 -17.5 -47.5 -22.5s-37 -7.5 -57 -7.5h-90v-128h-44v366zM414 16.001c47.333 0 91.333 8.83301 132 26.5s75.834 41.667 105.501 72s53 65.666 70 105.999s25.5 83.5 25.5 129.5v2c0 46 -8.33301 89.167 -25 129.5s-39.834 75.5 -69.501 105.5s-64.667 53.667 -105 71
s-84.166 26 -131.499 26s-91.333 -8.83301 -132 -26.5s-75.834 -41.667 -105.501 -72s-53 -65.666 -70 -105.999s-25.5 -83.5 -25.5 -129.5v-2c0 -46 8.33301 -89.167 25 -129.5s39.834 -75.5 69.501 -105.5s64.667 -53.667 105 -71s84.166 -26 131.499 -26zM414 -11.999
c-50.667 0 -98 9.5 -142 28.5s-82.167 44.833 -114.5 77.5s-57.833 70.834 -76.5 114.501s-28 90.167 -28 139.5v2c0 49.333 9.33301 95.833 28 139.5s44.334 82 77.001 115s71.167 59.167 115.5 78.5s91.833 29 142.5 29s98 -9.5 142 -28.5s82.167 -44.833 114.5 -77.5
s57.833 -70.834 76.5 -114.501s28 -90.167 28 -139.5v-2c0 -49.333 -9.33301 -95.833 -28 -139.5s-44.334 -82 -77.001 -115s-71.167 -59.167 -115.5 -78.5s-91.833 -29 -142.5 -29z" />
    <glyph glyph-name="endash" unicode="&#x2013;" horiz-adv-x="528" 
d="M70 323h388v-52h-388v52z" />
    <glyph glyph-name="emdash" unicode="&#x2014;" horiz-adv-x="898" 
d="M70 323h758v-52h-758v52z" />
    <glyph glyph-name="quoteleft" unicode="&#x2018;" horiz-adv-x="230" 
d="M77 587c0 31.333 6.33398 56 19.001 74s34 32.667 64 44l12 -25c-21.333 -11.333 -36.333 -23 -45 -35s-12.334 -27.667 -11.001 -47h27v-85h-66v74z" />
    <glyph glyph-name="quoteright" unicode="&#x2019;" horiz-adv-x="230" 
d="M58 533c21.333 11.333 36.332 23 44.999 35s12.334 27.667 11.001 47h-27v85h66v-74c0 -31.333 -6.33301 -56 -19 -74s-34 -32.667 -64 -44z" />
    <glyph glyph-name="quotesinglbase" unicode="&#x201a;" horiz-adv-x="230" 
d="M53 -82c21.333 11.333 36.332 23 44.999 35s12.334 27.667 11.001 47h-27v85h66v-74c0 -31.333 -6.33301 -56 -19 -74s-34 -32.667 -64 -44z" />
    <glyph glyph-name="quotedblleft" unicode="&#x201c;" horiz-adv-x="410" 
d="M77 587c0 31.333 6.33398 56 19.001 74s34 32.667 64 44l12 -25c-21.333 -11.333 -36.333 -23 -45 -35s-12.334 -27.667 -11.001 -47h27v-85h-66v74zM257.001 587c0 31.333 6.33398 56 19.001 74s34 32.667 64 44l12 -25c-21.333 -11.333 -36.333 -23 -45 -35
s-12.334 -27.667 -11.001 -47h27v-85h-66v74z" />
    <glyph glyph-name="quotedblright" unicode="&#x201d;" horiz-adv-x="410" 
d="M58 533c21.333 11.333 36.332 23 44.999 35s12.334 27.667 11.001 47h-27v85h66v-74c0 -31.333 -6.33301 -56 -19 -74s-34 -32.667 -64 -44zM237.999 533c21.333 11.333 36.332 23 44.999 35s12.334 27.667 11.001 47h-27v85h66v-74c0 -31.333 -6.33301 -56 -19 -74
s-34 -32.667 -64 -44z" />
    <glyph glyph-name="quotedblbase" unicode="&#x201e;" horiz-adv-x="410" 
d="M53 -82c21.333 11.333 36.332 23 44.999 35s12.334 27.667 11.001 47h-27v85h66v-74c0 -31.333 -6.33301 -56 -19 -74s-34 -32.667 -64 -44zM232.999 -82c21.333 11.333 36.332 23 44.999 35s12.334 27.667 11.001 47h-27v85h66v-74c0 -31.333 -6.33301 -56 -19 -74
s-34 -32.667 -64 -44z" />
    <glyph glyph-name="dagger" unicode="&#x2020;" horiz-adv-x="410" 
d="M188 524l-125 -7v45l124 -7l-7 145h50l-7 -145l124 7v-45l-125 7l5 -286h-44z" />
    <glyph glyph-name="daggerdbl" unicode="&#x2021;" horiz-adv-x="430" 
d="M197 145l-124 -7v45l125 -7l-5 174l5 174l-125 -7v45l124 -7l-7 145h50l-7 -145l124 7v-45l-125 7l5 -174l-5 -174l125 7v-45l-124 7l7 -145h-50z" />
    <glyph glyph-name="bullet" unicode="&#x2022;" horiz-adv-x="470" 
d="M235 228c-17.333 0 -33.501 3.16699 -48.501 9.5s-28 15.166 -39 26.499s-19.833 24.333 -26.5 39s-10 30.667 -10 48v2c0 16.667 3.33301 32.5 10 47.5s15.834 28.167 27.501 39.5s25 20.166 40 26.499s30.5 9.5 46.5 9.5s31.5 -3.16699 46.5 -9.5
s28.167 -15.166 39.5 -26.499s20.5 -24.5 27.5 -39.5s10.5 -30.833 10.5 -47.5v-2c0 -17.333 -3.33301 -33.333 -10 -48s-15.5 -27.667 -26.5 -39s-24.167 -20.166 -39.5 -26.499s-31.333 -9.5 -48 -9.5z" />
    <glyph glyph-name="ellipsis" unicode="&#x2026;" horiz-adv-x="680" 
d="M82 83h64v-83h-64v83zM308 83h64v-83h-64v83zM534 83h64v-83h-64v83z" />
    <glyph glyph-name="perthousand" unicode="&#x2030;" horiz-adv-x="1200" 
d="M616 35c14.667 0 28.167 3.49902 40.5 10.499s23 16.5 32 28.5s16 26.167 21 42.5s7.5 33.833 7.5 52.5v2c0 19.333 -2.66699 37.333 -8 54s-12.833 31 -22.5 43s-20.667 21.5 -33 28.5s-25.5 10.5 -39.5 10.5c-14.667 0 -28.167 -3.5 -40.5 -10.5s-23 -16.667 -32 -29
s-16 -26.666 -21 -42.999s-7.5 -33.5 -7.5 -51.5v-2c0 -20 2.66699 -38.333 8 -55s12.833 -31 22.5 -43s20.667 -21.333 33 -28s25.5 -10 39.5 -10zM992 34.999c14.667 0 28.167 3.49902 40.5 10.499s23 16.5 32 28.5s16 26.167 21 42.5s7.5 33.833 7.5 52.5v2
c0 19.333 -2.66699 37.333 -8 54s-12.833 31 -22.5 43s-20.667 21.5 -33 28.5s-25.5 10.5 -39.5 10.5c-14.667 0 -28.167 -3.5 -40.5 -10.5s-23 -16.667 -32 -29s-16 -26.666 -21 -42.999s-7.5 -33.5 -7.5 -51.5v-2c0 -20 2.66699 -38.333 8 -55s12.833 -31 22.5 -43
s20.667 -21.333 33 -28s25.5 -10 39.5 -10zM210 392.998c14.667 0 28.167 3.49902 40.5 10.499s23 16.5 32 28.5s16 26.167 21 42.5s7.5 33.833 7.5 52.5v2c0 19.333 -2.66699 37.333 -8 54s-12.833 31 -22.5 43s-20.667 21.5 -33 28.5s-25.5 10.5 -39.5 10.5
c-14.667 0 -28.167 -3.5 -40.5 -10.5s-23 -16.667 -32 -29s-16 -26.666 -21 -42.999s-7.5 -33.5 -7.5 -51.5v-2c0 -20 2.66699 -38.333 8 -55s12.833 -31 22.5 -43s20.667 -21.333 33 -28s25.5 -10 39.5 -10zM614 -8.00293c-23.333 0 -44.333 4.83789 -63 14.5049
s-34.667 22.667 -48 39s-23.666 35.166 -30.999 56.499s-11 43.666 -11 66.999v2c0 23.333 3.66699 45.833 11 67.5s17.833 40.667 31.5 57s30 29.5 49 39.5s40.167 15 63.5 15c22.667 0 43.5 -4.83301 62.5 -14.5s35.167 -22.834 48.5 -39.501s23.666 -35.667 30.999 -57
s11 -43.333 11 -66v-2c0 -23.333 -3.66699 -45.833 -11 -67.5s-17.833 -40.834 -31.5 -57.501s-30 -29.834 -49 -39.501s-40.167 -14.5 -63.5 -14.5zM990 -7.99805c-23.333 0 -44.333 4.83789 -63 14.5049s-34.667 22.667 -48 39s-23.666 35.166 -30.999 56.499
s-11 43.666 -11 66.999v2c0 23.333 3.66699 45.833 11 67.5s17.833 40.667 31.5 57s30 29.5 49 39.5s40.167 15 63.5 15c22.667 0 43.5 -4.83301 62.5 -14.5s35.167 -22.834 48.5 -39.501s23.666 -35.667 30.999 -57s11 -43.333 11 -66v-2
c0 -23.333 -3.66699 -45.833 -11 -67.5s-17.833 -40.834 -31.5 -57.501s-30 -29.834 -49 -39.501s-40.167 -14.5 -63.5 -14.5zM642 700.007h54l-514 -700h-54zM208 350.007c-23.333 0 -44.333 4.83789 -63 14.5049s-34.667 22.667 -48 39s-23.666 35.166 -30.999 56.499
s-11 43.666 -11 66.999v2c0 23.333 3.66699 45.833 11 67.5s17.833 40.667 31.5 57s30 29.5 49 39.5s40.167 15 63.5 15c22.667 0 43.5 -4.83301 62.5 -14.5s35.167 -22.834 48.5 -39.501s23.666 -35.667 30.999 -57s11 -43.333 11 -66v-2
c0 -23.333 -3.66699 -45.833 -11 -67.5s-17.833 -40.834 -31.5 -57.501s-30 -29.834 -49 -39.501s-40.167 -14.5 -63.5 -14.5z" />
    <glyph glyph-name="guilsinglleft" unicode="&#x2039;" horiz-adv-x="311" 
d="M51 251v8l160 209l37 -24l-137 -188l137 -190l-37 -24z" />
    <glyph glyph-name="guilsinglright" unicode="&#x203a;" horiz-adv-x="311" 
d="M63 66l137 188l-137 190l37 24l160 -209v-8l-160 -209z" />
    <glyph glyph-name="fraction" unicode="&#x2044;" horiz-adv-x="410" 
d="M401 758h54l-468 -856h-54z" />
    <glyph glyph-name="fraction" unicode="&#x2215;" horiz-adv-x="410" 
d="M401 758h54l-468 -856h-54z" />
    <glyph glyph-name="trademark" unicode="&#x2122;" horiz-adv-x="690" 
d="M127 666h-101v34h237v-34h-101v-274h-35v274zM333 700h37l120 -183l120 183h36v-308h-35v246l-119 -178h-5l-119 178v-246h-35v308z" />
    <glyph glyph-name="radical" unicode="&#x221a;" horiz-adv-x="973" 
d="M824 730h49v-730h-49v730zM123 465h-74.002v45h74v50c0 58.667 15 103 45 133c26.667 26.667 62.334 40 107.001 40c15.333 0 29 -1 41 -3s23.667 -5 35 -9v-46c-14.667 4.66699 -27.667 8 -39 10s-23.666 3 -36.999 3c-68.667 0 -103 -43 -103 -129v-49h178v-45h-178
v-465h-49v465zM484.998 465h-74.002v45h74v50c0 58.667 15 103 45 133c26.667 26.667 62.334 40 107.001 40c15.333 0 29 -1 41 -3s23.667 -5 35 -9v-46c-14.667 4.66699 -27.667 8 -39 10s-23.666 3 -36.999 3c-68.667 0 -103 -43 -103 -129v-49h178v-45h-178v-465h-49v465
z" />
    <glyph glyph-name="approxequal" unicode="&#x2248;" horiz-adv-x="973" 
d="M824 510h49v-510h-49v510zM123 465h-74.002v45h74v50c0 58.667 15 103 45 133c26.667 26.667 62.334 40 107.001 40c15.333 0 29 -1 41 -3s23.667 -5 35 -9v-46c-14.667 4.66699 -27.667 8 -39 10s-23.666 3 -36.999 3c-68.667 0 -103 -43 -103 -129v-49h178v-45h-178
v-465h-49v465zM484.998 465h-74.002v45h74v50c0 58.667 15 103 45 133c26.667 26.667 62.334 40 107.001 40c15.333 0 29 -1 41 -3s23.667 -5 35 -9v-46c-14.667 4.66699 -27.667 8 -39 10s-23.666 3 -36.999 3c-68.667 0 -103 -43 -103 -129v-49h178v-45h-178v-465h-49v465
zM817.996 710h61v-67h-61v67z" />
    <glyph glyph-name="NUL" horiz-adv-x="0" 
 />
    <glyph glyph-name="nonmarkingreturn" horiz-adv-x="300" 
 />
    <glyph glyph-name="apple" horiz-adv-x="967" 
d="M417 64c0 -4.66699 -0.832031 -8.66699 -2.49902 -12s-4.83398 -5 -9.50098 -5c-4 0 -7 1.66699 -9 5s-3 7.33301 -3 12c0 10.667 4 16 12 16s12 -5.33301 12 -16zM352.001 64h-3c-5.33301 0 -8 2.66699 -8 8c0 4 2.33301 6 7 6c2.66699 0 4 -1.33301 4 -4v-10z
M553.001 79c2.66699 0 2.66699 -3 0 -9c-3.33301 6 -3.33301 9 0 9zM393.001 182c0 -4.66699 -1.33203 -7.00098 -3.99902 -7.00098h-5c-7.33301 0 -13.5 3.33301 -18.5 10s-7.5 14 -7.5 22c0 11.333 4.66699 17 14 17h6c2 -0.666992 3.16699 -1.16699 3.5 -1.5
s1.16602 -2.16602 2.49902 -5.49902zM716.002 186.999c0 -8.66699 -3.66699 -12.999 -11 -12.999c-6 0 -11.667 3.83301 -17 11.5s-8 16.5 -8 26.5c0 9.33301 3.66699 14 11 14c6 0 11.667 -3.83301 17 -11.5s8 -16.834 8 -27.501zM275.002 200
c-5.33301 0 -9.16699 1.66797 -11.5 5.00098s-3.5 6.66602 -3.5 9.99902c0 6 2.66699 9 8 9s8.33301 -1.66699 9 -5l3 -19h-5zM381.001 384.001c-8.66699 0 -13 3.66699 -13 11s4.33301 11 13 11h11v-22h-11zM684.001 535.001c0 -8.66699 -3.66699 -12.999 -11 -12.999
c-6 0 -11.667 3.83301 -17 11.5s-8 16.5 -8 26.5c0 9.33301 3.66699 14 11 14c6 0 11.667 -3.83301 17 -11.5s8 -16.834 8 -27.501zM272.001 553.002c-2 -2.66699 -4.33203 -4 -6.99902 -4s-4 0.666992 -4 2c0 2 1.33301 3 4 3c3.33301 0 5.66602 -0.333008 6.99902 -1z
M566.002 553.002c-2 -2.66699 -4.33203 -4 -6.99902 -4s-4 0.666992 -4 2c0 2 1.33301 3 4 3c3.33301 0 5.66602 -0.333008 6.99902 -1zM171.003 548.002c-5.33301 0 -9.16699 1.66797 -11.5 5.00098s-3.5 6.66602 -3.5 9.99902c0 6 2.66699 9 8 9s8.33301 -1.66699 9 -5
l3 -19h-5zM441.002 -87.9971c0 8.66699 -3.66699 13 -11 13s-11 -4 -11 -12c0 -8.66699 3.66699 -13 11 -13s11 4 11 12zM800.002 -87.9971c0 8.66699 -3.66699 13 -11 13s-11 -4 -11 -12c0 -8.66699 3.66699 -13 11 -13s11 4 11 12zM559.002 -79.9971l-5 -12h10z
M394.002 -82.9971c0 5.33301 -3.66699 7.66699 -11 7v-13c7.33301 0 11 2 11 6zM525.002 -81.9961c0 5.33301 -3.66699 7.33301 -11 6v-12c7.33301 -0.666992 11 1.33301 11 6zM606.002 -82.9961c0 5.33301 -3.66699 7.66699 -11 7v-13c7.33301 0 11 2 11 6z
M309.002 48.0049c-1.33301 0 -2.3291 0.333984 -2.99609 1.00098c-2 0.666992 -3 2.33398 -3 5.00098v20c0 1.33301 1 2.66602 3 3.99902c0.666992 0.666992 1.66699 1 3 1v2h-18v-2c0.666992 0 1.66699 -0.333008 3 -1c2 -2 3 -3.33301 3 -4v-9
c-1.33301 0 -2.66602 0.666992 -3.99902 2l-8 8c-2 0.666992 -2.33301 1.66699 -1 3c0.666992 0.666992 1.33398 1 2.00098 1v2h-14v-2c0.666992 0 1.66699 -0.333008 3 -1s2.16602 -1.16699 2.49902 -1.5s1.16602 -0.833008 2.49902 -1.5l10 -9l-13 -13
c-0.666992 -0.666992 -1.33398 -1.16699 -2.00098 -1.5s-1.33398 -0.833008 -2.00098 -1.5c-1.33301 -0.666992 -2.33301 -1.33398 -3 -2.00098v-2h17v2c-1.33301 0 -2.33301 0.333008 -3 1s-0.333984 2 0.999023 4l8 8c1.33301 1.33301 2.66602 2 3.99902 2v-9
c0 -1.33301 -1 -3 -3 -5c-1.33301 -0.666992 -2.33301 -1 -3 -1v-2h18v2zM364.006 48.0059c-1.33301 0 -2.33105 0.332031 -2.99805 0.999023c-1.33301 1.33301 -2 2.66602 -2 3.99902v20c0 2 0.666992 3.66699 2 5c0.666992 0.666992 1.66699 1 3 1v2h-18
c-8.66699 0 -13 -3 -13 -9c0 -3.33301 3 -6.33301 9 -9l-7 -10c-1.33301 -1.33301 -2.5 -2.16602 -3.5 -2.49902s-1.83301 -0.833008 -2.5 -1.5l-2 -1v-2h11l7 12c2 2.66699 4.33301 4 7 4v-9c0 -1.33301 -0.333008 -2.16602 -1 -2.49902s-1.33398 -0.833008 -2.00098 -1.5
s-1.33398 -1 -2.00098 -1v-2h17v2zM425.008 64.0049c0 5.33301 -1.66699 9.66602 -5 12.999s-8.33301 5 -15 5s-11.667 -1.66699 -15 -5s-5 -7.66602 -5 -12.999s1.66699 -9.83301 5 -13.5s8.33301 -5.5 15 -5.5s11.667 1.83301 15 5.5s5 8.16699 5 13.5zM480.008 81.0049
l-15.002 0.00195312v-2c0.666992 0 1.33398 -0.333008 2.00098 -1s0.333984 -2 -0.999023 -4l-6 -9l-6 9c-1.33301 1.33301 -1.33301 2.66602 0 3.99902c0.666992 0.666992 1.66699 1 3 1v2h-15v-2c0.666992 0 1.66699 -0.333008 3 -1s3 -2 5 -4l8 -12v-8
c0 -1.33301 -1 -3 -3 -5c-0.666992 -0.666992 -1.33398 -1 -2.00098 -1v-2h17v2c-1.33301 0 -2.33301 0.333008 -3 1c-1.33301 1.33301 -2 3 -2 5v8l8 12c0.666992 1.33301 1.5 2.16602 2.5 2.49902s1.83301 0.833008 2.5 1.5s1.33398 1 2.00098 1v2zM568.006 81.0068
l-0.00683594 -2c0.666992 0 1.33398 -0.333008 2.00098 -1s0.666992 -2 0 -4l-9 -19l-5 10l4 8c0.666992 1.33301 1.33398 2.16602 2.00098 2.49902s1.33398 0.833008 2.00098 1.5l2 2v2h-26l1 -2c0.666992 0 1.33398 -0.333008 2.00098 -1l2 -2l3 -3l3 -5l-7 -13l-8 18
c-1.33301 2 -1.33301 3.66699 0 5c0.666992 0.666992 1.33398 1 2.00098 1v2h-13v-2c0.666992 0 1.33398 -0.333008 2.00098 -1c2 -2 3.33301 -3.66699 4 -5l13 -27h1c0.666992 -0.666992 1 -0.666992 1 0l8 16l9 -16h1l12 27c0.666992 1.33301 1.5 2.33301 2.5 3
s1.83301 1.33398 2.5 2.00098s1.33398 1 2.00098 1v2h-15zM632.999 48.0068c-1.33301 -0.666992 -2.33105 -0.666016 -2.99805 0.000976562c-1.33301 0 -2 1.66699 -2 5v21c0 2 0.666992 3.66699 2 5h3v2h-29l-2 -10l2 -1c0 1.33301 0.666992 2.66602 2 3.99902
c1.33301 2.66699 3.66602 4 6.99902 4h4c2.66699 0 4 -1 4 -3v-10h-4c-2 0 -3.66699 0.666992 -5 2c-0.666992 0.666992 -1 1.66699 -1 3h-2v-13h2c0 0.666992 0.333008 1.66699 1 3c2 2 3.66699 3 5 3h4v-11c0 -2 -1.33301 -3 -4 -3h-4
c-2.66699 0 -5.33398 1.33301 -8.00098 4c-1.33301 1.33301 -2 3 -2 5l-2 -1l2 -11h30v2zM694.001 48.0078c-1.33301 0 -2.33203 0.333008 -2.99902 1c-2 0.666992 -3 2 -3 4v20c0 1.33301 1 2.66602 3 3.99902c0.666992 0.666992 1.66699 1.33398 3 2.00098v2h-10l-24 -26
v18c0 2 1 3.66699 3 5c0.666992 0.666992 1.66699 1 3 1v2h-15v-2c0.666992 0 1.66699 -0.333008 3 -1c2 -2 3 -3.66699 3 -5v-28h3l25 28v-20c0 -0.666992 -1 -2 -3 -4c-0.666992 -0.666992 -1.33398 -1 -2.00098 -1v-2h14v2zM827.002 133.008h-685v-6h685v6z
M306.002 174.008c-1.33301 0 -2.66797 0.333984 -4.00098 1.00098s-2.5 1.33398 -3.5 2.00098s-1.83301 2.33398 -2.5 5.00098l-7 35c-0.666992 3.33301 0.333008 5.66602 3 6.99902c1.33301 0.666992 2.66602 1 3.99902 1l-1 3h-27c-13.333 0 -20 -5 -20 -15
c0 -4 1.83301 -7.33301 5.5 -10s8.16699 -4.33398 13.5 -5.00098l-9 -16c-1.33301 -2.66699 -2.83301 -4.33398 -4.5 -5.00098s-3.16699 -1.33398 -4.5 -2.00098c-2 -0.666992 -3.66699 -1 -5 -1l1 -3h19l12 23c0.666992 2 2.33398 3 5.00098 3l3 -15
c0.666992 -3.33301 -0.333008 -5.66602 -3 -6.99902c-1.33301 -0.666992 -2.66602 -1 -3.99902 -1l1 -3h29zM413 175.009c-1.33301 -0.666992 -2.66699 -0.666992 -4 0c-3.33301 1.33301 -5.33301 4.33301 -6 9l-8 31c-2 6 0.666992 9.33301 8 10l-1 3h-30
c-6 0 -11.667 -1.83301 -17 -5.5s-8 -9.16699 -8 -16.5c0 -10.667 3.66699 -19.167 11 -25.5s15.333 -9.5 24 -9.5h32zM521.999 174.009c-0.666992 0 -1.66602 0.333008 -2.99902 1c-3.33301 1.33301 -5.33301 4.33301 -6 9l-7 32c-0.666992 4 0.333008 6.66699 3 8
c1.33301 0.666992 3 1 5 1l-1 3h-14l-29 -42l-5 30c-0.666992 4 0.333008 6.66699 3 8c1.33301 0.666992 2.66602 1 3.99902 1l-1 3h-21l1 -3c1.33301 0 2.66602 -0.333008 3.99902 -1c2 -1.33301 3.66699 -4 5 -8l8 -45l3 -1l30 44l6 -30
c0.666992 -4.66699 0 -7.66699 -2 -9c-1.33301 -0.666992 -2.66602 -1 -3.99902 -1l1 -3h21zM620 228.009h-28.998l1 -3c1.33301 0 2.66602 -0.333008 3.99902 -1c3.33301 -1.33301 5.33301 -4 6 -8l5 -21c1.33301 -6.66699 1.66602 -11.667 0.999023 -15
s-4.66699 -5 -12 -5c-5.33301 0 -9.66602 2.16699 -12.999 6.5s-5.66602 9.5 -6.99902 15.5l-4 19c-0.666992 4.66699 0.333008 7.66699 3 9c1.33301 0.666992 2.66602 0.666992 3.99902 0v3h-24l1 -3c1.33301 0 3 -0.333008 5 -1c3.33301 -1.33301 5.33301 -4 6 -8l4 -19
c1.33301 -5.33301 4 -11.166 8 -17.499s10.667 -9.5 20 -9.5c11.333 0 17.666 2.66699 18.999 8s1.33301 10.666 0 15.999l-5 22c-1.33301 2.66699 -1.5 4.66699 -0.5 6s2.16699 2.33301 3.5 3s3 0.666992 5 0zM822.002 174.009
c-1.33301 0 -2.66504 0.331055 -3.99805 0.998047s-2.5 1.33398 -3.5 2.00098s-1.83301 2.33398 -2.5 5.00098l-7 35c-0.666992 3.33301 0.333008 5.66602 3 6.99902c1.33301 0.666992 2.66602 1 3.99902 1l-1 3h-45v-10v-7h4c-0.666992 2 -0.333984 4 0.999023 6
c1.33301 4.66699 5.33301 7 12 7h4c3.33301 0 5.33301 -2 6 -6l3 -16h-4c-3.33301 0 -6.33301 1.33301 -9 4c-1.33301 1.33301 -2.33301 3 -3 5h-3l5 -23h3c0 1.33301 0.333008 3 1 5c1.33301 4 3.66602 6 6.99902 6h4l3 -17
c0.666992 -3.33301 -0.333008 -5.66602 -3 -6.99902c-1.33301 -0.666992 -2.66602 -1 -3.99902 -1l1 -3h29zM203.003 217.007c-2 3.33301 -4.17188 6.33398 -6.50488 9.00098s-6.16602 4 -11.499 4c-10 0 -14.667 -7.66699 -14 -23c-2 6.66699 -4.66699 12.167 -8 16.5
s-7.66602 6.5 -12.999 6.5c-3.33301 0 -6.16602 -1 -8.49902 -3s-3.5 -5 -3.5 -9l3 -1c0 4 2.66699 6 8 6c6.66699 0 11.834 -3.5 15.501 -10.5s6.5 -14.5 8.5 -22.5c1.33301 -4.66699 1.66602 -7.83398 0.999023 -9.50098s-1.66699 -3.16699 -3 -4.5
s-2.66602 -1.66602 -3.99902 -0.999023l1 -4h28l-1 4c-1.33301 -0.666992 -2.66602 -0.666992 -3.99902 0c-3.33301 1.33301 -5.33301 4.33301 -6 9c-3.33301 11.333 -5 19.666 -5 24.999c0 8.66699 3 13 9 13c3.33301 0 5.83301 -0.833008 7.5 -2.5l4.5 -4.5z
M727.998 192.008c0 10 -3.83301 18.833 -11.5 26.5s-16.167 11.5 -25.5 11.5c-4.66699 0 -9.66699 -1.66699 -15 -5s-8 -9 -8 -17c0 -10.667 3.83301 -19.667 11.5 -27s16.167 -11 25.5 -11c4.66699 0 9.66699 1.66699 15 5s8 9 8 17zM826.998 277.008h-685v-6h685v6z
M282.998 341.008h-14v65h14v34h-141v-62h41v28h33v-20h-24v-24h24v-21h-33v28h-41v-61h141v33zM457.998 341.008h-14v65h14v34h-96c-14.667 0 -26.167 -3.83301 -34.5 -11.5s-12.5 -17.167 -12.5 -28.5s4.16699 -20.833 12.5 -28.5s19.833 -11.5 34.5 -11.5h30v-19h-15v-33
h81v33zM647.998 440.008h-81v-34h11l-15 -23l-15 23h10v34h-62v-34h12l37 -46v-19h-14v-33h81v33h-15v20l37 45h14v34zM826.998 440.008h-147v-62h36v28h11v-65h-14v-33h81v33h-14v65h11v-28h36v62zM826.998 481.008h-685v-6h685v6zM399.998 521.008
c0 1.33301 -1.00098 3.00098 -3.00098 5.00098s-5.33301 3.33301 -10 4c-2.66699 2 -4.16699 5.5 -4.5 10.5s-1 10.333 -2 16s-3 10.667 -6 15s-8.5 6.5 -16.5 6.5c-3.33301 0 -6.33301 -1.16699 -9 -3.5s-4 -4.5 -4 -6.5c0 -3.33301 1.66699 -5 5 -5c2.66699 0 4 2 4 6
s1.66699 6 5 6s5.5 -1.66699 6.5 -5s1.83301 -7.33301 2.5 -12s1.83398 -9.5 3.50098 -14.5s4.5 -9.5 8.5 -13.5c-7.33301 0 -12.166 -2.16699 -14.499 -6.5s-5.16602 -6.5 -8.49902 -6.5s-5 1.33301 -5 4c0 1.33301 0.333008 2.16602 1 2.49902s1 1.16602 1 2.49902
c0 3.33301 -1.66699 5 -5 5s-5 -2.33301 -5 -7c0 -3.33301 1.66699 -6.16602 5 -8.49902s6.66602 -3.5 9.99902 -3.5c8.66699 0 13.667 2.16699 15 6.5s4.66602 6.5 9.99902 6.5c2 -4.66699 6 -7 12 -7c2.66699 0 4 1 4 3zM201.997 522.009
c-1.33301 0 -2.66797 0.333984 -4.00098 1.00098s-2.5 1.33398 -3.5 2.00098s-1.83301 2.33398 -2.5 5.00098l-7 35c-0.666992 3.33301 0.333008 5.66602 3 6.99902c1.33301 0.666992 2.66602 1 3.99902 1l-1 3h-27c-13.333 0 -20 -5 -20 -15c0 -4 1.83301 -7.33301 5.5 -10
s8.16699 -4.33398 13.5 -5.00098l-9 -16c-1.33301 -2.66699 -2.83301 -4.33398 -4.5 -5.00098s-3.16699 -1.33398 -4.5 -2.00098c-2 -0.666992 -3.66699 -1 -5 -1l1 -3h19l12 23c0.666992 2 2.33398 3 5.00098 3l3 -15c0.666992 -3.33301 -0.333008 -5.66602 -3 -6.99902
c-1.33301 -0.666992 -2.66602 -1 -3.99902 -1l1 -3h29zM496.995 522.01c-1.33301 0 -2.66504 0.331055 -3.99805 0.998047s-2.5 1.33398 -3.5 2.00098s-1.83301 2.33398 -2.5 5.00098l-7 35c-0.666992 3.33301 0.333008 5.66602 3 6.99902
c1.33301 0.666992 2.66602 1 3.99902 1l-1 3h-45v-10v-7h4c-0.666992 2 -0.333984 4 0.999023 6c1.33301 4.66699 5.33301 7 12 7h4c3.33301 0 5.33301 -2 6 -6l3 -16h-4c-3.33301 0 -6.33301 1.33301 -9 4c-1.33301 1.33301 -2.33301 3 -3 5h-3l5 -23h3
c0 1.33301 0.333008 3 1 5c1.33301 4 3.66602 6 6.99902 6h4l3 -17c0.666992 -3.33301 -0.333008 -5.66602 -3 -6.99902c-1.33301 -0.666992 -2.66602 -1 -3.99902 -1l1 -3h29zM819.996 522.008c-1.33301 0 -2.66699 0.327148 -4 0.994141s-2.5 1.33398 -3.5 2.00098
s-1.83301 2.33398 -2.5 5.00098l-7 35c-0.666992 3.33301 0.333008 5.66602 3 6.99902c1.33301 0.666992 2.66602 1 3.99902 1l-1 3h-28l1 -3c1.33301 0 2.66602 -0.333008 3.99902 -1c2.66699 -1.33301 4.33398 -3.66602 5.00098 -6.99902l3 -15h-24l-3 15
c-0.666992 3.33301 0.333008 5.66602 3 6.99902c1.33301 0.666992 2.66602 1 3.99902 1l-1 3h-29l1 -3c1.33301 0 2.66602 -0.333008 3.99902 -1c3.33301 -1.33301 5.33301 -3.66602 6 -6.99902l7 -35c0.666992 -3.33301 -0.333008 -5.66602 -3 -6.99902
c-1.33301 -0.666992 -2.66602 -1 -3.99902 -1l1 -3h29l-1 3c-1.33301 0 -2.66602 0.333008 -3.99902 1s-2.5 1.33398 -3.5 2.00098s-1.83301 2.33398 -2.5 5.00098l-3 16h24l3 -16c0.666992 -3.33301 -0.333008 -5.66602 -3 -6.99902
c-1.33301 -0.666992 -2.66602 -1 -3.99902 -1l1 -3h29zM294.995 537.002c0 8 -4.66895 13.6689 -14.002 17.002c3.33301 2 5 5 5 9c0 3.33301 -1.66699 6.66602 -5 9.99902s-8.66602 5 -15.999 5c-8.66699 0 -13 -3.66699 -13 -11c0 -4 1.66699 -6 5 -6c2.66699 0 4 1 4 3
s-0.5 3.16699 -1.5 3.5s-1.5 1.16602 -1.5 2.49902c0 3.33301 2.33301 5 7 5c6.66699 0 10 -4 10 -12c0 -2.66699 -0.666992 -4.66699 -2 -6c-10.667 1.33301 -16 -0.666992 -16 -6c0 -4 2.66699 -6 8 -6c4 0 7.66699 1.66699 11 5c4 -3.33301 6 -8.33301 6 -15
c0 -9.33301 -4 -14 -12 -14s-12 3 -12 9c0 2 1 3 3 3c0.666992 0 1.33398 -0.333008 2.00098 -1s1.66699 -1 3 -1c2.66699 0 4 1.66699 4 5s-2.33301 5 -7 5c-6 0 -9 -3.33301 -9 -10c0 -8.66699 5.33301 -13 16 -13c8.66699 0 15 1.83301 19 5.5s6 8.16699 6 13.5z
M588.993 537.004c0 8 -4.66895 13.6689 -14.002 17.002c3.33301 2 5 5 5 9c0 3.33301 -1.66699 6.66602 -5 9.99902s-8.66602 5 -15.999 5c-8.66699 0 -13 -3.66699 -13 -11c0 -4 1.66699 -6 5 -6c2.66699 0 4 1 4 3s-0.5 3.16699 -1.5 3.5s-1.5 1.16602 -1.5 2.49902
c0 3.33301 2.33301 5 7 5c6.66699 0 10 -4 10 -12c0 -2.66699 -0.666992 -4.66699 -2 -6c-10.667 1.33301 -16 -0.666992 -16 -6c0 -4 2.66699 -6 8 -6c4 0 7.66699 1.66699 11 5c4 -3.33301 6 -8.33301 6 -15c0 -9.33301 -4 -14 -12 -14s-12 3 -12 9c0 2 1 3 3 3
c0.666992 0 1.33398 -0.333008 2.00098 -1s1.66699 -1 3 -1c2.66699 0 4 1.66699 4 5s-2.33301 5 -7 5c-6 0 -9 -3.33301 -9 -10c0 -8.66699 5.33301 -13 16 -13c8.66699 0 15 1.83301 19 5.5s6 8.16699 6 13.5zM695.991 540.006c0 10 -3.83301 18.833 -11.5 26.5
s-16.167 11.5 -25.5 11.5c-4.66699 0 -9.66699 -1.66699 -15 -5s-8 -9 -8 -17c0 -10.667 3.83301 -19.667 11.5 -27s16.167 -11 25.5 -11c4.66699 0 9.66699 1.66699 15 5s8 9 8 17zM826.991 624.006h-685v-6h685v6zM438.991 664.006
c-1.33301 -0.666992 -2.33105 -0.666016 -2.99805 0.000976562c-1.33301 0 -2 1.66699 -2 5v21c0 2 0.666992 3.66699 2 5h3v2h-29l-2 -10l2 -1c0 1.33301 0.666992 2.66602 2 3.99902c1.33301 2.66699 3.66602 4 6.99902 4h4c2.66699 0 4 -1 4 -3v-10h-4
c-2 0 -3.66699 0.666992 -5 2c-0.666992 0.666992 -1 1.66699 -1 3h-2v-13h2c0 0.666992 0.333008 1.66699 1 3c2 2 3.66699 3 5 3h4v-11c0 -2 -1.33301 -3 -4 -3h-4c-2.66699 0 -5.33398 1.33301 -8.00098 4c-1.33301 1.33301 -2 3 -2 5l-2 -1l2 -11h30v2zM503.993 664.007
c-1.33301 -0.666992 -2.33008 -0.666992 -2.99707 0c-2 0 -3 1.66699 -3 5v21c0 2 1 3.66699 3 5h3v2h-18v-1v-1h2c2 -2 3 -3.66699 3 -5v-9h-17v9c0 2 0.666992 3.66699 2 5h3v1v1h-17v-2h2c2 -2 3 -3.66699 3 -5v-21c0 -1.33301 -0.333008 -2.16602 -1 -2.49902
s-1.33398 -0.833008 -2.00098 -1.5s-1.33398 -1 -2.00098 -1v-2h17v2c-1.33301 0 -2.33301 0.333008 -3 1c-1.33301 1.33301 -2 2.66602 -2 3.99902v10h17v-10c0 -3.33301 -1 -5 -3 -5c-0.666992 -0.666992 -1.33398 -0.666992 -2.00098 0v-2h18v2zM558.996 686.007
l0.00195312 4c0 1.33301 -0.166992 2.66602 -0.5 3.99902s-0.5 2.66602 -0.5 3.99902c-1.33301 -0.666992 -7 -1 -17 -1s-16 0.333008 -18 1c0 -1.33301 -0.166992 -2.66602 -0.5 -3.99902s-0.5 -2.66602 -0.5 -3.99902v-4h2c0.666992 1.33301 1.66699 2.66602 3 3.99902
c3.33301 3.33301 5.66602 5 6.99902 5c2 0 3 -1 3 -3v-23c0 -3.33301 -1 -5 -3 -5c-0.666992 -0.666992 -1.33398 -0.666992 -2.00098 0v-2h17v2c-1.33301 -0.666992 -2.33301 -0.666992 -3 0c-1.33301 0 -2 1.66699 -2 5v23c0 2 1 3 3 3s4.66699 -1.66699 8 -5
c1.33301 -1.33301 2 -2.66602 2 -3.99902h2zM283.998 -100.993c0 -2.66699 -1.33301 -4 -4 -4s-4 1.33301 -4 4s1.33301 4 4 4s4 -1.33301 4 -4zM715.998 -100.993c0 -2.66699 -1.33301 -4 -4 -4s-4 1.33301 -4 4s1.33301 4 4 4s4 -1.33301 4 -4zM142.998 -104.993h-1
l-11 23l-10 -23h-1l-12 34l6 1l7 -23l10 23h1l10 -23l7 22h6zM198.998 -104.993h-1l-11 23l-10 -23h-1l-12 34l6 1l7 -23l10 23h1l10 -23l7 22h6zM254.998 -104.993h-1l-11 23l-10 -23h-1l-12 34l6 1l7 -23l10 23h1l10 -23l7 22h6zM322.998 -75.9932h-12v-28h-6v28h-12v5h30
v-5zM350.998 -89.9932v-14h-6v14l-14 19l6 1l11 -15l9 14h7zM399.998 -81.9932c0 -8 -5.66699 -11.999 -17 -11.999v-10h-6v33c9.33301 1.33301 15.5 0.666016 18.5 -2.00098s4.5 -5.66699 4.5 -9zM446.998 -86.9922c0 -5.33301 -1.49902 -9.66602 -4.49902 -12.999
s-7.16699 -5 -12.5 -5s-9.5 1.66699 -12.5 5s-4.5 7.33301 -4.5 12c0 5.33301 1.66699 9.66602 5 12.999s7.66602 5 12.999 5c4.66699 0 8.5 -1.66699 11.5 -5s4.5 -7.33301 4.5 -12zM490.999 -100.992c-4 -2.66699 -8.33301 -3.99902 -13 -3.99902
c-5.33301 0 -9.66602 1.5 -12.999 4.5s-5 7.16699 -5 12.5s1.83301 9.66602 5.5 12.999s8.16699 5 13.5 5c4 0 8 -1.33301 12 -4l-2 -5c-2.66699 2.66699 -6.33398 4 -11.001 4c-8 0 -12 -4.33301 -12 -13c0 -8 4.33301 -12 13 -12c1.33301 0 3.33301 0.666992 6 2v7h-9v5
h15v-15zM526.999 -103.991l-8 10.999h-5v-11h-6v33c9.33301 1.33301 15.5 0.833008 18.5 -1.5s4.5 -5.16602 4.5 -8.49902c0 -4.66699 -2.33301 -8 -7 -10l10 -13h-7zM569.999 -103.992l-4 8h-14l-3 -8h-6l15 34h2l16 -34h-6zM611.999 -81.9922
c0 -8 -5.66699 -11.999 -17 -11.999v-10h-6v33c9.33301 1.33301 15.5 0.666016 18.5 -2.00098s4.5 -5.66699 4.5 -9zM649.999 -103.991v15h-16v-15h-6v33h6v-13h16v13h6v-33h-6zM688.999 -89.9912v-14h-6v14l-14 19l6 1l11 -15l9 14h7zM756.999 -101.991
c-2 -2 -5.33301 -3 -10 -3c-12 0 -18 5.66699 -18 17c0 5.33301 1.66699 9.66602 5 12.999s7.66602 5 12.999 5c4 0 7.66699 -1 11 -3l-2 -5c-2 2 -5 3 -9 3c-3.33301 0 -6.16602 -1.16699 -8.49902 -3.5s-3.5 -5.16602 -3.5 -8.49902c0 -8.66699 4.33301 -13 13 -13
c2.66699 0 6 1.33301 10 4zM805.999 -86.9912c0 -5.33301 -1.49902 -9.66602 -4.49902 -12.999s-7.16699 -5 -12.5 -5s-9.5 1.66699 -12.5 5s-4.5 7.33301 -4.5 12c0 5.33301 1.66699 9.66602 5 12.999s7.66602 5 12.999 5c4.66699 0 8.5 -1.66699 11.5 -5
s4.5 -7.33301 4.5 -12zM853 -103.991l-3 20l-10 -21h-2l-10 21l-3 -20h-6l6 34h1l13 -26l13 26h1l6 -34h-6zM101 0.00878906v750h767v-750h-767z" />
  </font>
</defs>
</svg>
